Nails – You Will Never Be One Of Us (2016) {Nuclear Blast NE33832}

Download
Nails - You Will Never Be One Of Us (2016) {Nuclear Blast NE33832}

Nails – You Will Never Be One Of Us (2016) {Nuclear Blast NE33832}
EAC rip (secure mode) | FLAC (tracks)+CUE+LOG -> 178 Mb | MP3 @320 -> 52 Mb
Full Artwork @ 300 dpi (png) -> 57 Mb | 5% repair rar
© 2016 Nuclear Blast / Universal | NE33832
Grindcore / Hardcore / Death Metal

The third studio full-length from the Oxnard, California-based powerviolence/grindcore unit, You Will Never Be One of Us clocks in at just under 22 minutes. Their longest outing to date, the ten-track set would be less of a marathon were it not for the epic eight-minute closer "They Come Crawling Back," a doomy, thrashy, and relentlessly brutal bit of business that boasts the album’s lone fade-out; it actually exhausts itself. The rest of You Will Never Be One of Us closely mirrors Nails’ previous offerings, delivering forehead-melting blastbeats, whammy bar-induced audio grand mal seizures, and lyrics that target the sickly sweet spot between apoplectic and hopeless.

In short, it’s another vital and punishing set of high-caliber hardcore ragers that celebrate the worst that humanity has to offer. It’s also the group’s most polished – if shiny razors are your thing – effort to date, due in large part to some pithy production work from Converge guitarist Kurt Ballou. Still, it’s an unrelenting black mass of vengeance, with meatier bits like "Violence Is Forever," "Savage Intolerance," and the punitive title track boasting a boomy, pit-of-your-stomach throb that helps to balance out some of the shriller tones that accompany the intermittent air-raid siren noodling. It’s lethal stuff, and too much of it would likely kill you, which is why, in looking ahead to future endeavors, they should probably steer clear of the 35-minute mark. The band’s devotion to unadulterated sonic malevolence remains unchanged. They know that the darkest corners of the human psyche have deep closets, and they would like to show you what’s in them.

Nails - You Will Never Be One Of Us (2016) {Nuclear Blast NE33832}

Nails:
Todd Jones – guitars, vocals
John Gianelli – bass guitar
Taylor Young – drums

tracklist:
01 – You Will Never Be One Of Us
02 – Friend To All
03 – Made To Make You Fail
04 – Life Is A Death Sentence
05 – Violence Is Forever
06 – Savage Intolerance
07 – In Pain
08 – Parasite
09 – Into Quietus
10 – They Come Crawling Back

EAC log
Exact Audio Copy V1.1 from 23. June 2015

EAC extraction logfile from 19. June 2016, 18:04

Nails / You Will Never Be One Of Us

Used drive : HL-DT-STDVDRAM GH24NSC0 Adapter: 1 ID: 1

Read mode : Secure
Utilize accurate stream : Yes
Defeat audio cache : Yes
Make use of C2 pointers : No

Read offset correction : 6
Overread into Lead-In and Lead-Out : No
Fill up missing offset samples with silence : Yes
Delete leading and trailing silent blocks : No
Null samples used in CRC calculations : Yes
Used interface : Native Win32 interface for Win NT & 2000
Gap handling : Appended to previous track

Used output format : User Defined Encoder
Selected bitrate : 128 kBit/s
Quality : High
Add ID3 tag : No
Command line compressor : C:Program Files (x86)Exact Audio CopyFlacflac.exe
Additional command line options : -8 -V -T "ARTIST=%artist%" -T "TITLE=%title%" -T "ALBUM=%albumtitle%" -T "DATE=%year%" -T "TRACKNUMBER=%tracknr%" -T "TOTALTRACKS=%numtracks%" -T "GENRE=%genre%" -T "ALBUMARTIST=%albumartist%" -T "ALBUM ARTIST=%albumartist%" -T "COMMENT=%comment%" %source%

TOC of the extracted CD

Track | Start | Length | Start sector | End sector
––––––––––––––––––––––––––––-
1 | 0:00.00 | 1:29.65 | 0 | 6739
2 | 1:29.65 | 0:45.43 | 6740 | 10157
3 | 2:15.33 | 0:55.36 | 10158 | 14318
4 | 3:10.69 | 1:39.00 | 14319 | 21743
5 | 4:49.69 | 3:26.38 | 21744 | 37231
6 | 8:16.32 | 1:46.35 | 37232 | 45216
7 | 10:02.67 | 1:01.62 | 45217 | 49853
8 | 11:04.54 | 0:55.21 | 49854 | 53999
9 | 12:00.00 | 1:33.71 | 54000 | 61045
10 | 13:33.71 | 8:14.37 | 61046 | 98132

Track 1

Filename E:TorrentsNails – You Will Never Be One Of Us (2016) [FLAC] {NE33832}1 – You Will Never Be One Of Us.wav

Pre-gap length 0:00:02.00

Peak level 99.7 %
Extraction speed 0.8 X
Track quality 100.0 %
Test CRC D1197C8A
Copy CRC D1197C8A
Track not present in AccurateRip database
Copy OK

Track 2

Filename E:TorrentsNails – You Will Never Be One Of Us (2016) [FLAC] {NE33832}2 – Friend To All.wav

Peak level 99.7 %
Extraction speed 0.6 X
Track quality 100.0 %
Test CRC A36B437A
Copy CRC A36B437A
Track not present in AccurateRip database
Copy OK

Track 3

Filename E:TorrentsNails – You Will Never Be One Of Us (2016) [FLAC] {NE33832}3 – Made To Make You Fail.wav

Peak level 99.7 %
Extraction speed 0.7 X
Track quality 100.0 %
Test CRC 901BFA8F
Copy CRC 901BFA8F
Track not present in AccurateRip database
Copy OK

Track 4

Filename E:TorrentsNails – You Will Never Be One Of Us (2016) [FLAC] {NE33832}4 – Life Is A Death Sentence.wav

Peak level 99.7 %
Extraction speed 0.9 X
Track quality 100.0 %
Test CRC 492550CB
Copy CRC 492550CB
Track not present in AccurateRip database
Copy OK

Track 5

Filename E:TorrentsNails – You Will Never Be One Of Us (2016) [FLAC] {NE33832}5 – Violence Is Forever.wav

Peak level 99.7 %
Extraction speed 1.0 X
Track quality 99.9 %
Test CRC 2008F13A
Copy CRC 2008F13A
Track not present in AccurateRip database
Copy OK

Track 6

Filename E:TorrentsNails – You Will Never Be One Of Us (2016) [FLAC] {NE33832}6 – Savage Intolerance.wav

Peak level 99.7 %
Extraction speed 1.1 X
Track quality 100.0 %
Test CRC 39BE6F2B
Copy CRC 39BE6F2B
Track not present in AccurateRip database
Copy OK

Track 7

Filename E:TorrentsNails – You Will Never Be One Of Us (2016) [FLAC] {NE33832}7 – In Pain.wav

Peak level 99.7 %
Extraction speed 0.9 X
Track quality 100.0 %
Test CRC 988ADFBB
Copy CRC 988ADFBB
Track not present in AccurateRip database
Copy OK

Track 8

Filename E:TorrentsNails – You Will Never Be One Of Us (2016) [FLAC] {NE33832}8 – Parasite.wav

Peak level 99.7 %
Extraction speed 0.9 X
Track quality 100.0 %
Test CRC 36F91E26
Copy CRC 36F91E26
Track not present in AccurateRip database
Copy OK

Track 9

Filename E:TorrentsNails – You Will Never Be One Of Us (2016) [FLAC] {NE33832}9 – Into Quietus.wav

Peak level 99.7 %
Extraction speed 0.8 X
Track quality 99.8 %
Test CRC E9A3844F
Copy CRC E9A3844F
Track not present in AccurateRip database
Copy OK

Track 10

Filename E:TorrentsNails – You Will Never Be One Of Us (2016) [FLAC] {NE33832}10 – They Come Crawling Back.wav

Peak level 99.7 %
Extraction speed 1.5 X
Track quality 100.0 %
Test CRC 3A6E8185
Copy CRC 3A6E8185
Track not present in AccurateRip database
Copy OK

None of the tracks are present in the AccurateRip database

No errors occurred

End of status report

–– CUETools DB Plugin V2.1.6

[CTDB TOCID: bQovmIVUDDek8YdHF77JHSc83OU-] found
Submit result: already submitted
Track | CTDB Status
1 | (4/4) Accurately ripped
2 | (4/4) Accurately ripped
3 | (4/4) Accurately ripped
4 | (4/4) Accurately ripped
5 | (4/4) Accurately ripped
6 | (4/4) Accurately ripped
7 | (4/4) Accurately ripped
8 | (4/4) Accurately ripped
9 | (4/4) Accurately ripped
10 | (4/4) Accurately ripped

==== Log checksum C43F623E4CFDFF9E8A16E4AF224E6852CC52C4C8DBB4AB8620939FC5341344A7 ====

Nails - You Will Never Be One Of Us (2016) {Nuclear Blast NE33832}

Nails - You Will Never Be One Of Us (2016) {Nuclear Blast NE33832}

All thanks goes to the original releaser!

===

Nails – You Will Never Be One Of Us (2016) {Nuclear Blast NE33832} Download, Warez, DDL, Free, Full Album, Torrent, Legal.

Download