Nadine Khouri – The Salted Air (2017)

Download
Nadine Khouri - The Salted Air (2017)

Nadine Khouri – The Salted Air
EAC Rip | FLAC (tracks)+cue, log, front cover | 37:34 min | 208 MB
Label: One Flash Records ‎– ONEFL05-CD | Tracks: 10 | Rls.date: 2017
Folk, Indie Pop, Singer-Songwriter

Nadine Khouri is a British-Lebanese musician and songwriter currently based in London. Influenced by dream-pop, moody soundtracks and spoken-word, her sound has been described as a "music born of perennial outsider-status." Noted by John Parish (PJ Harvey, Giant Sand) for her voice, Khouri was invited to sing on a track on his Screenplay LP and subsequently to record her forthcoming album with the producer in his hometown of Bristol. The resulting album is a haunting collection of poetic and atmospheric meditations on loss and transformation. The album also features guest contributions from Parish, Irish singer-songwriter Adrian Crowley, violinist Emma Smith (James Yorkston, Hot Chip) and others. In the past year, Khouri has performed in some of London’s most renowned venues and supported Howe Gelb, Mary Hampton, and John Parish, garnering positive reviews for her live performances.

TRACKLIST
01 Thru You I Awaken 2:27
02 I Ran Thru The Dark 3:52
03 Jerusalem Blue 3:05
04 Broken Star 4:13
05 Daybreak 3:35
06 The Salted Air 5:37
07 Surface Of The Sea 3:44
08 You Got A Fire 4:11
09 Shake It Like A Shaman 2:33
10 Catapult 4:18

EAC Log
Exact Audio Copy V1.3 from 2. September 2016

EAC extraction logfile from 15. July 2017, 13:41

Nadine Khouri / The Salted Air

Used drive : PLEXTOR DVDR PX-716A Adapter: 1 ID: 0

Read mode : Secure
Utilize accurate stream : Yes
Defeat audio cache : Yes
Make use of C2 pointers : No

Read offset correction : 30
Overread into Lead-In and Lead-Out : Yes
Fill up missing offset samples with silence : Yes
Delete leading and trailing silent blocks : No
Null samples used in CRC calculations : Yes
Used interface : Native Win32 interface for Win NT & 2000
Gap handling : Appended to previous track

Used output format : User Defined Encoder
Selected bitrate : 128 kBit/s
Quality : High
Add ID3 tag : No
Command line compressor : C:Program Files (x86)Exact Audio CopyFlacflac.exe
Additional command line options : -8 -V -T "ARTIST=%artist%" -T "TITLE=%title%" -T "ALBUM=%albumtitle%" -T "DATE=%year%" -T "TRACKNUMBER=%tracknr%" -T "GENRE=%genre%" -T "PERFORMER=%albuminterpret%" -T "COMPOSER=%composer%" %haslyrics%–tag-from-file=LYRICS="%lyricsfile%"%haslyrics% -T "ALBUMARTIST=%albumartist%" -T "DISCNUMBER=%cdnumber%" -T "TOTALDISCS=%totalcds%" -T "TOTALTRACKS=%numtracks%" -T "COMMENT=%comment%" %source% -o %dest%

TOC of the extracted CD

Track | Start | Length | Start sector | End sector
––––––––––––––––––––––––––––-
1 | 0:00.00 | 2:27.54 | 0 | 11078
2 | 2:27.54 | 3:51.73 | 11079 | 28476
3 | 6:19.52 | 3:05.10 | 28477 | 42361
4 | 9:24.62 | 4:13.70 | 42362 | 61406
5 | 13:38.57 | 3:35.67 | 61407 | 77598
6 | 17:14.49 | 5:37.46 | 77599 | 102919
7 | 22:52.20 | 3:44.07 | 102920 | 119726
8 | 26:36.27 | 4:11.09 | 119727 | 138560
9 | 30:47.36 | 2:33.13 | 138561 | 150048
10 | 33:20.49 | 4:18.68 | 150049 | 169466

Track 1

Filename E:EACRips1 Thru You I Awaken.wav

Pre-gap length 0:00:02.00

Peak level 99.4 %
Extraction speed 5.4 X
Track quality 99.9 %
Test CRC 7D0D5157
Copy CRC 7D0D5157
Accurately ripped (confidence 1) [BEA33646] (AR v2)
Copy OK

Track 2

Filename E:EACRips2 I Ran Thru The Dark.wav

Peak level 100.0 %
Extraction speed 6.1 X
Track quality 100.0 %
Test CRC A916AC7D
Copy CRC A916AC7D
Accurately ripped (confidence 1) [639F5664] (AR v2)
Copy OK

Track 3

Filename E:EACRips3 Jerusalem Blue.wav

Peak level 100.0 %
Extraction speed 4.6 X
Track quality 100.0 %
Test CRC D0A2900B
Copy CRC D0A2900B
Accurately ripped (confidence 1) [0EC956A0] (AR v2)
Copy OK

Track 4

Filename E:EACRips4 Broken Star.wav

Peak level 100.0 %
Extraction speed 5.5 X
Track quality 99.9 %
Test CRC F1681C2C
Copy CRC F1681C2C
Accurately ripped (confidence 1) [5F99FB09] (AR v2)
Copy OK

Track 5

Filename E:EACRips5 Daybreak.wav

Peak level 100.0 %
Extraction speed 4.5 X
Track quality 100.0 %
Test CRC 69684B39
Copy CRC 69684B39
Accurately ripped (confidence 1) [AEF24C19] (AR v2)
Copy OK

Track 6

Filename E:EACRips6 The Salted Air.wav

Peak level 100.0 %
Extraction speed 4.3 X
Track quality 99.9 %
Test CRC B9268B7B
Copy CRC B9268B7B
Accurately ripped (confidence 1) [7970D3E4] (AR v2)
Copy OK

Track 7

Filename E:EACRips7 Surface Of The Sea.wav

Peak level 100.0 %
Extraction speed 3.5 X
Track quality 99.9 %
Test CRC 69D85F2E
Copy CRC 69D85F2E
Accurately ripped (confidence 1) [7F402BB1] (AR v2)
Copy OK

Track 8

Filename E:EACRips8 You Got A Fire.wav

Peak level 100.0 %
Extraction speed 4.2 X
Track quality 100.0 %
Test CRC C8A0C394
Copy CRC C8A0C394
Accurately ripped (confidence 1) [4080D359] (AR v2)
Copy OK

Track 9

Filename E:EACRips9 Shake It Like A Shaman.wav

Peak level 100.0 %
Extraction speed 4.0 X
Track quality 100.0 %
Test CRC BC7A5E8F
Copy CRC BC7A5E8F
Accurately ripped (confidence 1) [0FFAABE3] (AR v2)
Copy OK

Track 10

Filename E:EACRips10 Catapult.wav

Peak level 100.0 %
Extraction speed 3.8 X
Track quality 100.0 %
Test CRC 27B05109
Copy CRC 27B05109
Accurately ripped (confidence 1) [925C7745] (AR v2)
Copy OK

All tracks accurately ripped

No errors occurred

End of status report

–– CUETools DB Plugin V2.1.6

[CTDB TOCID: oTKyLfqmUdGwirV7jDAMt.3P36o-] found
Submit result: oTKyLfqmUdGwirV7jDAMt.3P36o- has been confirmed
Track | CTDB Status
1 | (3/3) Accurately ripped
2 | (3/3) Accurately ripped
3 | (3/3) Accurately ripped
4 | (3/3) Accurately ripped
5 | (3/3) Accurately ripped
6 | (3/3) Accurately ripped
7 | (3/3) Accurately ripped
8 | (3/3) Accurately ripped
9 | (3/3) Accurately ripped
10 | (3/3) Accurately ripped

==== Log checksum 4B97C10DADCC74458D00C4A5BDD179A2723178A9C226144160ACA25873DDD6FB ====

Thanks to the Original customer.

Nadine Khouri – The Salted Air (2017) Download, Warez, DDL, Free, Full Album, Torrent, Legal.

Download