Mychael Danna & VA – Monsoon Wedding: Soundtrack (2001)

Download
Mychael Danna & VA - Monsoon Wedding: Soundtrack (2001)

Mychael Danna & VA – Monsoon Wedding: Soundtrack (2001)
EAC | FLAC | Tracks (Cue&Log) ~ 386 Mb (incl 5%) | Mp3 (CBR320) ~ 150 Mb (incl 5%) | Scans ~ 74 Mb
Soundtrack, Score, World Fusion, Qawwali, Ghazal | Label: Milan | # 5050466 3081 2 2 | 01:02:33

Monsoon Wedding is Mychael Danna’s second collaboration with film director Mira Nair, (Kama Sutra was the first), and he has again compiled a winning soundtrack. Danna explores a wide range of emotions, from solemn to celebratory, through different generations of Indian culture. The contemplative "Good Indian Girls" and "Hold Me, I’m Falling" feature Danna’s trademark piano ambience over traditional Indian instrumentation, and the vivacious "Baraat" sounds like a Punjabi variation on Dixieland, while "Delhi.com" ventures into dreamy ethno-techno territory. Sukhwinder Singh’s "Today My Heart Desires" serves up lively bhangra rock, and Laxmikant Pyarelal’s "Today the Weather Plays Tricks on Me" (performed by Mohammed Rafi) swoons with strings and male vocals. In all, the soundtrack’s pleasing variety of Eastern music mirrors the film’s old and new worlds living within a singular culture.

Review by Bryan Reesman

Monsoon Wedding director Mira Nair has described her beautiful family drama as "a Bollywood film, made on my terms." It’s a pretty apt description, though on the surface the subtly acted art house picture may seem to have very little in common with the elaborately choreographed musical productions for which the Indian film industry is famous. Whereas Bollywood products are generally characterized by broadly painted heroes and villains, Nair’s characters are among the most three-dimensional and honestly realized in international cinema. They are not the sort of people who populate Bollywood entertainments, but they are the sort of people who pay to see them. They don’t burst simultaneously into song, but they do dance to Indian pop music in their living rooms. They do belt out traditional celebratory songs at wedding parties. What Monsoon Wedding shares with Bollywood is its appreciation of India’s deeply rooted cultural enthusiasm for song and dance. The soundtrack reflects the delightfully broad spectrum of the music that plays on middle-class stereos all over modern India. There is a thumping electronic Hindi disco tune, a soaring orchestral romantic ballad from the vinyl era, an infectiously melodious contemporary pop duet, and a festive traditional spiritual performed by the internationally revered Pakistani singer Nusrat Fateh Ali Kahn. But most impressive of all is the film’s original music. Sukhvinder Singh’s rousing theme song, "Aaj Mera Jee Kardaa," expertly weaves traditional folk elements with sleek pop rhythms and strings. In a perfect alternate reality, it would probably be an Oscar winner. So would Mychael Danna’s score. A recent Hindu groom himself and one of the most innovative composers in North American cinema, Danna elevates Nair’s naturalistic hand-held camera narrative to a transcendent spiritual plane. The mystical "Fuse Box" almost single-handedly accomplishes the task of transforming the clownish wedding planner P.K. Dubey from a hilarious marigold-eating Indian version of Martin Short’s Father of the Bride character to a thoroughly credible and even charming romantic lead. Unfortunately, that exquisite melody is hyped up to the point of tedium in two pounding techno remixes at the conclusion of the soundtrack album. They are a regrettable misstep in an otherwise brilliant compilation.

Review by Evan Cater, Allmusic.com

Mychael Danna & VA - Monsoon Wedding: Soundtrack (2001)

Mychael Danna at Allmusic
Mychael Danna Website
Mychael Danna at Wiki

Film at IMDB
Film at Wiki

Tracklist:

01. Feels Like Rain (00:28)
02. Aaj Mera Jee Kardaa (Today My Heart Desires) (05:11) (Performed by Sukhwinder Singh)
03. Baraat (02:12)
04. Aaj Mausam Bada Beimann Hai (Today The Weather Plays Tricks On Me) (03:21) (Performed by Mohammed Rafi)
05. Your Good Name (03:38)
06. Delhi.com (01:41)
07. Fuse Box (02:31)
08. Mehndi- Madhorama Pencha (03:26) (Performed by Madan Bala Sindhu)
09. Banished (00:52)
10. Good Indian Girls (03:41)
11. Fabric- Aaja Savariya (Come To Me, My Beloved) (03:01) (Performed by MIDIval Punditz)
12. Allah Hoo (04:39) (Performed by Nusrat Fateh Ali Khan)
13. Hold Me, I’m Falling (02:57)
14. Love And Marigolds (02:45)
15. Chunari Chunari (04:08) (Performed by Abhijeet and Anuradha Sriram)
16. Aaja Nachle (Come On Dance!) (03:40) (Performed by Bally Sagoo feat. Hans Raj Hans)
17. Aaj Mera Jee Kardaa (Zimpala Remix) (04:56) (Performed by Sukhwinder Singh)
18. Fuse Box (Alexkid’s Dub Remix) (06:14)
19. Fuse Box (Julio Black Remix) (03:03)

EAC log
Exact Audio Copy V1.0 beta 4 from 7. December 2014

EAC extraction logfile from 4. November 2016, 20:42

Various Artists / Mychael Danna – Monsoon Wedding OST

Used drive : TSSTcorpCDDVDW SH-224DB Adapter: 1 ID: 0

Read mode : Secure
Utilize accurate stream : Yes
Defeat audio cache : Yes
Make use of C2 pointers : No

Read offset correction : 6
Overread into Lead-In and Lead-Out : No
Fill up missing offset samples with silence : Yes
Delete leading and trailing silent blocks : No
Null samples used in CRC calculations : Yes
Used interface : Native Win32 interface for Win NT & 2000
Gap handling : Appended to previous track

Used output format : User Defined Encoder
Selected bitrate : 896 kBit/s
Quality : High
Add ID3 tag : No
Command line compressor : C:Program FilesExact Audio CopyFlacflac.exe
Additional command line options : -6 -V -T "ARTIST=%artist%" -T "TITLE=%title%" -T "ALBUM=%albumtitle%" -T "DATE=%year%" -T "TRACKNUMBER=%tracknr%" -T "GENRE=%genre%" -T "COMMENT=%comment%" %source% -o %dest%

TOC of the extracted CD

Track | Start | Length | Start sector | End sector
––––––––––––––––––––––––––––-
1 | 0:00.00 | 0:28.63 | 0 | 2162
2 | 0:28.63 | 5:11.74 | 2163 | 25561
3 | 5:40.62 | 2:12.40 | 25562 | 35501
4 | 7:53.27 | 3:21.48 | 35502 | 50624
5 | 11:15.00 | 3:38.12 | 50625 | 66986
6 | 14:53.12 | 1:41.17 | 66987 | 74578
7 | 16:34.29 | 2:31.27 | 74579 | 85930
8 | 19:05.56 | 3:26.46 | 85931 | 101426
9 | 22:32.27 | 0:52.16 | 101427 | 105342
10 | 23:24.43 | 3:41.28 | 105343 | 121945
11 | 27:05.71 | 3:01.63 | 121946 | 135583
12 | 30:07.59 | 4:39.33 | 135584 | 156541
13 | 34:47.17 | 2:57.33 | 156542 | 169849
14 | 37:44.50 | 2:45.69 | 169850 | 182293
15 | 40:30.44 | 4:08.62 | 182294 | 200955
16 | 44:39.31 | 3:40.25 | 200956 | 217480
17 | 48:19.56 | 4:56.71 | 217481 | 239751
18 | 53:16.52 | 6:14.02 | 239752 | 267803
19 | 59:30.54 | 3:03.04 | 267804 | 281532

Track 1

Filename C:New Folder1 – Mychael Danna – Feels Like Rain.wav

Pre-gap length 0:00:02.00

Peak level 59.0 %
Extraction speed 0.5 X
Track quality 99.6 %
Test CRC 5FE39380
Copy CRC 5FE39380
Accurately ripped (confidence 20) [DE6A5076] (AR v2)
Copy OK

Track 2

Filename C:New Folder2 – Sukhwinder Singh – Aaj Mera Jee Kardaa (Today My Heart Desires).wav

Peak level 100.0 %
Extraction speed 2.0 X
Track quality 100.0 %
Test CRC 843E0817
Copy CRC 843E0817
Accurately ripped (confidence 21) [89A87F95] (AR v2)
Copy OK

Track 3

Filename C:New Folder3 – Mychael Danna – Baraat.wav

Pre-gap length 0:00:00.63

Peak level 99.3 %
Extraction speed 1.9 X
Track quality 100.0 %
Test CRC 45195479
Copy CRC 45195479
Accurately ripped (confidence 21) [25A2A5FE] (AR v2)
Copy OK

Track 4

Filename C:New Folder4 – Mohammed Rafi – Aaj Mausam Bada Beimann Hai (Today The Weather Plays Tricks On Me).wav

Pre-gap length 0:00:01.51

Peak level 100.0 %
Extraction speed 2.2 X
Track quality 100.0 %
Test CRC A4E578FE
Copy CRC A4E578FE
Accurately ripped (confidence 21) [C1E2F83C] (AR v2)
Copy OK

Track 5

Filename C:New Folder5 – Mychael Danna – Your Good Name.wav

Pre-gap length 0:00:01.25

Peak level 99.3 %
Extraction speed 2.3 X
Track quality 100.0 %
Test CRC 88DA098E
Copy CRC 88DA098E
Accurately ripped (confidence 22) [FECC1D8A] (AR v2)
Copy OK

Track 6

Filename C:New Folder6 – Mychael Danna – Delhi.com.wav

Pre-gap length 0:00:01.14

Peak level 99.3 %
Extraction speed 1.4 X
Track quality 99.8 %
Test CRC FFBC9BCA
Copy CRC FFBC9BCA
Accurately ripped (confidence 21) [44D5D6BF] (AR v2)
Copy OK

Track 7

Filename C:New Folder7 – Mychael Danna – Fuse Box.wav

Pre-gap length 0:00:00.63

Peak level 99.3 %
Extraction speed 1.8 X
Track quality 99.9 %
Test CRC 01518718
Copy CRC 01518718
Accurately ripped (confidence 21) [2203018B] (AR v2)
Copy OK

Track 8

Filename C:New Folder8 – Madan Bala Sindhu – Mehndi- Madhorama Pencha.wav

Pre-gap length 0:00:01.44

Peak level 99.3 %
Extraction speed 2.5 X
Track quality 100.0 %
Test CRC 402852FA
Copy CRC 402852FA
Accurately ripped (confidence 21) [76948FC8] (AR v2)
Copy OK

Track 9

Filename C:New Folder9 – Mychael Danna – Banished.wav

Pre-gap length 0:00:01.68

Peak level 99.3 %
Extraction speed 1.8 X
Track quality 100.0 %
Test CRC 73D183F2
Copy CRC 73D183F2
Accurately ripped (confidence 21) [FA33B4E4] (AR v2)
Copy OK

Track 10

Filename C:New Folder10 – Mychael Danna – Good Indian Girls.wav

Pre-gap length 0:00:01.23

Peak level 99.3 %
Extraction speed 2.7 X
Track quality 100.0 %
Test CRC 65FBD038
Copy CRC 65FBD038
Accurately ripped (confidence 21) [50A24599] (AR v2)
Copy OK

Track 11

Filename C:New Folder11 – Midival Punditz – Fabric- Aaja Savariya (Come To Me, My Beloved).wav

Pre-gap length 0:00:01.20

Peak level 99.3 %
Extraction speed 2.8 X
Track quality 100.0 %
Test CRC E771A7E2
Copy CRC E771A7E2
Accurately ripped (confidence 21) [5F700827] (AR v2)
Copy OK

Track 12

Filename C:New Folder12 – Nusrat Fateh Ali Khan – Allah Hoo.wav

Pre-gap length 0:00:00.63

Peak level 99.3 %
Extraction speed 3.1 X
Track quality 100.0 %
Test CRC 8C25B7EF
Copy CRC 8C25B7EF
Accurately ripped (confidence 21) [6276C96A] (AR v2)
Copy OK

Track 13

Filename C:New Folder13 – Mychael Danna – Hold Me, I’m Falling.wav

Pre-gap length 0:00:01.60

Peak level 99.3 %
Extraction speed 3.0 X
Track quality 100.0 %
Test CRC F275A608
Copy CRC F275A608
Accurately ripped (confidence 21) [6BBC4A52] (AR v2)
Copy OK

Track 14

Filename C:New Folder14 – Mychael Danna – Love And Marigolds.wav

Pre-gap length 0:00:02.10

Peak level 99.3 %
Extraction speed 3.0 X
Track quality 100.0 %
Test CRC B1D35450
Copy CRC B1D35450
Accurately ripped (confidence 21) [36270C22] (AR v2)
Copy OK

Track 15

Filename C:New Folder15 – Abhijeet And Anuradha Shriram – Chunari Chunari.wav

Pre-gap length 0:00:02.70

Peak level 100.0 %
Extraction speed 3.3 X
Track quality 100.0 %
Test CRC 4351A245
Copy CRC 4351A245
Accurately ripped (confidence 21) [8E5CB706] (AR v2)
Copy OK

Track 16

Filename C:New Folder16 – Bally Sagoo Feat. Hans Raj Hans – Aaja Nachle (Come On Dance!).wav

Pre-gap length 0:00:00.63

Peak level 100.0 %
Extraction speed 3.3 X
Track quality 100.0 %
Test CRC FF14AE28
Copy CRC FF14AE28
Accurately ripped (confidence 21) [FF2DCB91] (AR v2)
Copy OK

Track 17

Filename C:New Folder17 – Sukhwinder Singh – Aaj Mera Jee Kardaa (Zimpala Remix).wav

Pre-gap length 0:00:03.63

Peak level 100.0 %
Extraction speed 3.6 X
Track quality 100.0 %
Test CRC 9C046671
Copy CRC 9C046671
Accurately ripped (confidence 20) [8556DC5D] (AR v2)
Copy OK

Track 18

Filename C:New Folder18 – Mychael Danna – Fuse Box (Alexkid’s Dub Remix).wav

Pre-gap length 0:00:02.09

Peak level 100.0 %
Extraction speed 3.8 X
Track quality 100.0 %
Test CRC 11E6F4DE
Copy CRC 11E6F4DE
Accurately ripped (confidence 20) [5515A1CC] (AR v2)
Copy OK

Track 19

Filename C:New Folder19 – Mychael Danna – Fuse Box (Julio Black Remix).wav

Pre-gap length 0:00:00.63

Peak level 100.0 %
Extraction speed 3.6 X
Track quality 100.0 %
Test CRC 153613A5
Copy CRC 153613A5
Accurately ripped (confidence 20) [6AD29AE9] (AR v2)
Copy OK

All tracks accurately ripped

No errors occurred

End of status report

–– CUETools DB Plugin V2.1.4

[CTDB TOCID: XMSLcMZ1Gfp4mVvidlHiR4FKXFY-] found
Submit result: already submitted
Track | CTDB Status
1 | (60/63) Accurately ripped
2 | (58/63) Accurately ripped
3 | (61/63) Accurately ripped
4 | (62/63) Accurately ripped
5 | (61/63) Accurately ripped
6 | (61/63) Accurately ripped
7 | (61/63) Accurately ripped
8 | (61/63) Accurately ripped
9 | (62/63) Accurately ripped
10 | (62/63) Accurately ripped
11 | (60/63) Accurately ripped
12 | (62/63) Accurately ripped
13 | (60/63) Accurately ripped
14 | (61/63) Accurately ripped
15 | (59/63) Accurately ripped
16 | (60/63) Accurately ripped
17 | (57/63) Accurately ripped
18 | (59/63) Accurately ripped
19 | (60/63) Accurately ripped

==== Log checksum 1FF45432003D84F1DBABE0774B69EF895083D40970267B83A1ADC5AC9CB535E6 ====

DR log
foobar2000 1.2 / Dynamic Range Meter 1.1.1
log date: 2016-12-27 16:19:22

––––––––––––––––––––––––––––––––––––––––
Analyzed: Abhijeet And Anuradha Shriram / Mychael Danna – Monsoon Wedding OST (1)
Bally Sagoo Feat. Hans Raj Hans / Mychael Danna – Monsoon Wedding OST (2)
Madan Bala Sindhu / Mychael Danna – Monsoon Wedding OST (3)
Midival Punditz / Mychael Danna – Monsoon Wedding OST (4)
Mohammed Rafi / Mychael Danna – Monsoon Wedding OST (5)
Mychael Danna / Mychael Danna – Monsoon Wedding OST (6-16)
Nusrat Fateh Ali Khan / Mychael Danna – Monsoon Wedding OST (17)
Sukhwinder Singh / Mychael Danna – Monsoon Wedding OST (18-19)
––––––––––––––––––––––––––––––––––––––––

DR Peak RMS Duration Track
––––––––––––––––––––––––––––––––––––––––
DR8 0.00 dB -8.80 dB 4:09 15-Chunari Chunari
DR7 0.00 dB -8.43 dB 3:40 16-Aaja Nachle (Come On Dance!)
DR13 -0.06 dB -14.69 dB 3:27 08-Mehndi- Madhorama Pencha
DR8 -0.06 dB -9.72 dB 3:02 11-Fabric- Aaja Savariya (Come To Me, My Beloved)
DR9 0.00 dB -10.26 dB 3:22 04-Aaj Mausam Bada Beimann Hai (Today The Weather Plays Tricks On Me)
DR6 -4.58 dB -15.61 dB 0:29 01-Feels Like Rain
DR8 -0.06 dB -9.42 dB 2:13 03-Baraat
DR7 -0.06 dB -10.63 dB 3:38 05-Your Good Name
DR7 -0.06 dB -8.67 dB 1:41 06-Delhi.com
DR9 -0.06 dB -12.09 dB 2:31 07-Fuse Box
DR9 -0.06 dB -12.68 dB 0:52 09-Banished
DR9 -0.06 dB -13.15 dB 3:41 10-Good Indian Girls
DR11 -0.06 dB -16.02 dB 2:57 13-Hold Me, I’m Falling
DR8 -0.06 dB -11.56 dB 2:46 14-Love And Marigolds
DR6 0.00 dB -7.39 dB 6:14 18-Fuse Box (Alexkid’s Dub Remix)
DR9 0.00 dB -11.93 dB 3:03 19-Fuse Box (Julio Black Remix)
DR10 -0.06 dB -12.65 dB 4:39 12-Allah Hoo
DR6 0.00 dB -7.30 dB 5:12 02-Aaj Mera Jee Kardaa (Today My Heart Desires)
DR6 0.00 dB -7.31 dB 4:57 17-Aaj Mera Jee Kardaa (Zimpala Remix)
––––––––––––––––––––––––––––––––––––––––

Number of tracks: 19
Official DR value: DR8

Samplerate: 44100 Hz
Channels: 2
Bits per sample: 16
Bitrate: 876 kbps
Codec: FLAC
================================================================================

Mychael Danna & VA - Monsoon Wedding: Soundtrack (2001)

All thanks to original releaser – alekow

More interesting music in My Blog

Mychael Danna & VA – Monsoon Wedding: Soundtrack (2001) Download, Warez, DDL, Free, Full Album, Torrent, Legal.

Download