My Sleeping Karma – Moksha (2015)

Download
My Sleeping Karma - Moksha (2015)

My Sleeping Karma – Moksha (2015)
EAC Rip | FLAC (tracks+.cue+log) – 322 MB | MP3 CBR 320 kbps (LAME 3.93) – 127 MB | Covers – 44 MB
Genre: Psychedelic/Space Rock | RAR 3% Rec. | Label: Napalm Records (NPR 591)

German instrumental group My Sleeping Karma have been carving out a unique niche over their previous four albums. The group’s sound takes progressive metal, post-rock, psychedelic rock, and heavy shades of Eastern music influence into a rather immersive listening experience. On its most recent fifth record, "Moksha", we find My Sleeping Karma honing in even further into a comfort zone. Very rarely do the songs break out into metallic fury, but much like The Ocean, the results are powerful and wonderful. It takes a couple songs to really get the feel for what the band does, but that’s common of any music with post-rock or psych leanings. My Sleeping Karma is more worried about feel and emotion than about more immediate things like riffs or melody. That’s not to say those aren’t here, but they aren’t given the same import as the mood.

Progarchives

Tracklist:
01. Prithvi
02. Interlude 1
03. Vayu
04. Interlude 2
05. Akasha
06. Interlude 3
07. Moksha
08. Interlude 4
09. Jalam
10. Interlude 5
11. Agni

Total time: 54:00

EAC log
Exact Audio Copy V1.0 beta 4 from 7. December 2014

EAC extraction logfile from 25. August 2015, 16:45

My Sleeping Karma / Moksha

Used drive : Optiarc DVD RW AD-5260S Adapter: 1 ID: 1

Read mode : Secure
Utilize accurate stream : Yes
Defeat audio cache : Yes
Make use of C2 pointers : No

Read offset correction : 48
Overread into Lead-In and Lead-Out : No
Fill up missing offset samples with silence : Yes
Delete leading and trailing silent blocks : No
Null samples used in CRC calculations : Yes
Used interface : Native Win32 interface for Win NT & 2000
Gap handling : Appended to previous track

Used output format : Internal WAV Routines
Sample format : 44.100 Hz; 16 Bit; Stereo

TOC of the extracted CD

Track | Start | Length | Start sector | End sector
––––––––––––––––––––––––––––-
1 | 0:00.00 | 6:29.16 | 0 | 29190
2 | 6:29.16 | 2:36.40 | 29191 | 40930
3 | 9:05.56 | 5:55.01 | 40931 | 67556
4 | 15:00.57 | 1:45.19 | 67557 | 75450
5 | 16:46.01 | 6:12.61 | 75451 | 103411
6 | 22:58.62 | 1:48.06 | 103412 | 111517
7 | 24:46.68 | 9:37.27 | 111518 | 154819
8 | 34:24.20 | 2:17.01 | 154820 | 165095
9 | 36:41.21 | 8:25.09 | 165096 | 202979
10 | 45:06.30 | 2:21.45 | 202980 | 213599
11 | 47:28.00 | 6:31.32 | 213600 | 242956

Track 1

Filename C:_EAC1 Prithvi.wav

Pre-gap length 0:00:02.00

Peak level 96.5 %
Extraction speed 1.1 X
Track quality 100.0 %
Test CRC 4426F9F8
Copy CRC 4426F9F8
Accurately ripped (confidence 8) [FAF67F65] (AR v2)
Copy OK

Track 2

Filename C:_EAC2 Interlude 1.wav

Peak level 59.6 %
Extraction speed 1.0 X
Track quality 100.0 %
Test CRC 92EF3C63
Copy CRC 92EF3C63
Accurately ripped (confidence 8) [2FD57D98] (AR v2)
Copy OK

Track 3

Filename C:_EAC3 Vayu.wav

Peak level 96.5 %
Extraction speed 1.1 X
Track quality 100.0 %
Test CRC 565083D0
Copy CRC 565083D0
Accurately ripped (confidence 8) [3D0324E6] (AR v2)
Copy OK

Track 4

Filename C:_EAC4 Interlude 2.wav

Peak level 72.8 %
Extraction speed 0.7 X
Track quality 99.8 %
Test CRC 47857190
Copy CRC 47857190
Accurately ripped (confidence 8) [3BDE9977] (AR v2)
Copy OK

Track 5

Filename C:_EAC5 Akasha.wav

Peak level 96.5 %
Extraction speed 1.0 X
Track quality 99.9 %
Test CRC 590C9D21
Copy CRC 590C9D21
Accurately ripped (confidence 8) [B45AF6B8] (AR v2)
Copy OK

Track 6

Filename C:_EAC6 Interlude 3.wav

Peak level 72.7 %
Extraction speed 0.9 X
Track quality 100.0 %
Test CRC AAA6C0C4
Copy CRC AAA6C0C4
Accurately ripped (confidence 8) [CE17FF8E] (AR v2)
Copy OK

Track 7

Filename C:_EAC7 Moksha.wav

Peak level 96.5 %
Extraction speed 1.1 X
Track quality 99.9 %
Test CRC EE86F08E
Copy CRC EE86F08E
Accurately ripped (confidence 8) [C6A8E634] (AR v2)
Copy OK

Track 8

Filename C:_EAC8 Interlude 4.wav

Peak level 71.9 %
Extraction speed 1.0 X
Track quality 100.0 %
Test CRC 793DFBEA
Copy CRC 793DFBEA
Accurately ripped (confidence 8) [8BA7CB13] (AR v2)
Copy OK

Track 9

Filename C:_EAC9 Jalam.wav

Peak level 96.5 %
Extraction speed 1.1 X
Track quality 100.0 %
Test CRC 725BD6F3
Copy CRC 725BD6F3
Accurately ripped (confidence 8) [550DED9A] (AR v2)
Copy OK

Track 10

Filename C:_EAC10 Interlude 5.wav

Peak level 58.4 %
Extraction speed 1.0 X
Track quality 100.0 %
Test CRC FF1F3164
Copy CRC FF1F3164
Accurately ripped (confidence 8) [D981C295] (AR v2)
Copy OK

Track 11

Filename C:_EAC11 Agni.wav

Peak level 96.5 %
Extraction speed 1.0 X
Track quality 99.9 %
Test CRC 8780317B
Copy CRC 8780317B
Accurately ripped (confidence 8) [F0C7EB58] (AR v2)
Copy OK

All tracks accurately ripped

No errors occurred

End of status report

–– CUETools DB Plugin V2.1.4

[CTDB TOCID: pdHTErTbwwkVhioElgCSQoan3p0-] found
Submit result: pdHTErTbwwkVhioElgCSQoan3p0- has been confirmed
Track | CTDB Status
1 | (15/15) Accurately ripped
2 | (15/15) Accurately ripped
3 | (15/15) Accurately ripped
4 | (15/15) Accurately ripped
5 | (15/15) Accurately ripped
6 | (15/15) Accurately ripped
7 | (15/15) Accurately ripped
8 | (15/15) Accurately ripped
9 | (15/15) Accurately ripped
10 | (15/15) Accurately ripped
11 | (15/15) Accurately ripped

CUETools log
[CUETools log; Date: 28.07.2017 2:35:04; Version: 2.1.4]
[CTDB TOCID: pdHTErTbwwkVhioElgCSQoan3p0-] found.
Track | CTDB Status
1 | (66/67) Accurately ripped
2 | (66/67) Accurately ripped
3 | (66/67) Accurately ripped
4 | (66/67) Accurately ripped
5 | (66/67) Accurately ripped
6 | (66/67) Accurately ripped
7 | (64/67) Accurately ripped
8 | (64/67) Accurately ripped
9 | (64/67) Accurately ripped
10 | (64/67) Accurately ripped
11 | (64/67) Accurately ripped
[AccurateRip ID: 00157a19-00bae7e9-890ca70b] found.
Track [ CRC | V2 ] Status
01 [2450a878|faf67f65] (02+27/29) Accurately ripped
02 [b22527b1|2fd57d98] (02+27/29) Accurately ripped
03 [42534d7b|3d0324e6] (02+27/29) Accurately ripped
04 [88736404|3bde9977] (02+27/29) Accurately ripped
05 [4c686157|b45af6b8] (02+27/29) Accurately ripped
06 [c4f64f4a|ce17ff8e] (02+27/29) Accurately ripped
07 [7d17b3a4|c6a8e634] (02+27/29) Accurately ripped
08 [29664fda|8ba7cb13] (02+27/29) Accurately ripped
09 [a7a63570|550ded9a] (02+26/28) Accurately ripped
10 [6e2f50db|d981c295] (02+26/28) Accurately ripped
11 [5b878bb9|f0c7eb58] (02+26/28) Accurately ripped

Track Peak [ CRC32 ] [W/O NULL] [ LOG ]
– 96,5 [73EE3FE8] [968C7B59]
01 96,5 [4426F9F8] [C77929BA] CRC32
02 59,6 [92EF3C63] [8555276E] CRC32
03 96,5 [565083D0] [40F72399] CRC32
04 72,8 [47857190] [8AD38BDC] CRC32
05 96,5 [590C9D21] [BF33B667] CRC32
06 72,7 [AAA6C0C4] [B0C22DA6] CRC32
07 96,5 [EE86F08E] [442C0B4C] CRC32
08 71,9 [793DFBEA] [B38B8659] CRC32
09 96,5 [725BD6F3] [73BC7072] CRC32
10 58,4 [FF1F3164] [D0429B85] CRC32
11 96,5 [8780317B] [DA2A7027] CRC32

Thanks to vp_sunset

Welcome to My Blog!

My Sleeping Karma – Moksha (2015) Download, Warez, DDL, Free, Full Album, Torrent, Legal.

Download