Museo Rosenbach – Zarathustra (1973) [Reissue 2011] (Repost) | ViralVideoPk

Daily Dose of Free Downloads

Museo Rosenbach – Zarathustra (1973) [Reissue 2011] (Repost)

Download

Museo Rosenbach - Zarathustra (1973) [Reissue 2011] (Repost)

Museo Rosenbach – Zarathustra (1973) [Reissue 2011]
EAC Rip | FLAC (image+.cue+log) – 239 MB | MP3 CBR 320 kbps (LAME 3.93) – 96 MB | Covers (4 MB) included
Genre: Progressive Rock | RAR 3% Rec. | Label: Sony Music (88697987402)

Museo Rosenbach is an Italian progressive band, best known for their 1973 release Zarathustra, a concept album freely inspired by the controversial works of philosopher Friedrich Nietzsche and ‘Thus Spoke Zarathustra’. Unfortunately, at the time of its release, the album was widely disregarded because of the far right-wing views found within the Nietzsche-inspired lyrics. The band suffered for their political ideals, which prevented them from getting the kind of attention they deserved. Museo’s musical palette contained a dash of Banco, ELP and Van Der Graaf Generator. Comparisons to early King Crimson are also inevitable; this is symphonic progressive rock with a rough edge. While the group’s particular brand was less experimental than a lot of Italian prog, their compositions were equally challenging constructions, filled with time changes and eccentricities. Something is always happening.

Progarchives

Tracklist:
01. Zarathustra – L’Ultimo Uomo
02. Zarathustra – Il Re Di Ieri
03. Zarathustra – Al Di La Del Bene E Del Male
04. Zarathustra – Superuomo
05. Zarathustra – Il Tempio Delle Clessidre
06. Degli Uomini
07. Della Natura
08. Dell’Eterno Ritorno

Total time: 39:15

EAC log
Exact Audio Copy V0.99 prebeta 4 from 23. January 2008

EAC extraction logfile from 3. March 2012, 16:19

Museo Rosenbach / Zarathustra

Used drive : Optiarc DVD RW AD-7170S Adapter: 1 ID: 0

Read mode : Secure
Utilize accurate stream : Yes
Defeat audio cache : Yes
Make use of C2 pointers : No

Read offset correction : 48
Overread into Lead-In and Lead-Out : No
Fill up missing offset samples with silence : Yes
Delete leading and trailing silent blocks : No
Null samples used in CRC calculations : Yes
Used interface : Native Win32 interface for Win NT & 2000

Used output format : User Defined Encoder
Selected bitrate : 128 kBit/s
Quality : High
Add ID3 tag : No
Command line compressor : G:Program FilesExact Audio CopyFlacflac.exe
Additional command line options : -8 -V %s

TOC of the extracted CD

Track | Start | Length | Start sector | End sector
––––––––––––––––––––––––––––-
1 | 0:00.00 | 3:57.49 | 0 | 17823
2 | 3:57.49 | 4:39.47 | 17824 | 38795
3 | 8:37.21 | 2:41.26 | 38796 | 50896
4 | 11:18.47 | 6:30.11 | 50897 | 80157
5 | 17:48.58 | 2:45.23 | 80158 | 92555
6 | 20:34.06 | 3:58.49 | 92556 | 110454
7 | 24:32.55 | 8:23.58 | 110455 | 148237
8 | 32:56.38 | 6:18.65 | 148238 | 176652

Range status and errors

Selected range

Filename D:terr83Museo Rosenbach – Zarathustra 1973CDImage.wav

Peak level 100.0 %
Range quality 100.0 %
Copy CRC FE8B7890
Copy OK

No errors occurred

AccurateRip summary

Track 1 cannot be verified as accurate (confidence 2) [1CB11F6B], AccurateRip returned [3DD5064A]
Track 2 cannot be verified as accurate (confidence 2) [1A405189], AccurateRip returned [2757F970]
Track 3 cannot be verified as accurate (confidence 2) [B0AA6FC5], AccurateRip returned [8EDB5125]
Track 4 cannot be verified as accurate (confidence 2) [07766808], AccurateRip returned [B9F47AE2]
Track 5 cannot be verified as accurate (confidence 2) [5C4ACAAC], AccurateRip returned [F19A1DF0]
Track 6 cannot be verified as accurate (confidence 2) [77D8C318], AccurateRip returned [14662FFB]
Track 7 cannot be verified as accurate (confidence 2) [7032951B], AccurateRip returned [959E47EE]
Track 8 cannot be verified as accurate (confidence 2) [494459C5], AccurateRip returned [2B2F2617]

No tracks could be verified as accurate
You may have a different pressing from the one(s) in the database

End of status report

CUETools log
[CUETools log; Date: 13.12.2016 20:13:09; Version: 2.1.4]
[CTDB TOCID: HbimaiLz7z_9f7_fWZgTI9995u0-] found.
Track | CTDB Status
1 | (11/11) Accurately ripped
2 | (11/11) Accurately ripped
3 | (11/11) Accurately ripped
4 | (11/11) Accurately ripped
5 | (11/11) Accurately ripped
6 | (11/11) Accurately ripped
7 | (11/11) Accurately ripped
8 | (11/11) Accurately ripped
[AccurateRip ID: 000aeb39-004a2b2d-6a093308] found.
Track [ CRC | V2 ] Status
01 [1cb11f6b|4b0624cb] (0+3/9) Accurately ripped
02 [1a405189|b5c21da6] (0+3/9) Accurately ripped
03 [b0aa6fc5|c0a8dd4b] (0+3/9) Accurately ripped
04 [07766808|cbbf4aff] (0+3/9) Accurately ripped
05 [5c4acaac|63e53c14] (0+3/9) Accurately ripped
06 [77d8c318|3f91397d] (0+3/9) Accurately ripped
07 [7032951b|b9510cc4] (0+3/9) Accurately ripped
08 [494459c5|364c86a8] (0+3/9) Accurately ripped
Offsetted by 670:
01 [aedac45f] (0/9) No match (V2 was not tested)
02 [5fb816a7] (0/9) No match (V2 was not tested)
03 [87402445] (0/9) No match (V2 was not tested)
04 [0b10c5ff] (0/9) No match (V2 was not tested)
05 [0dba8977] (0/9) No match (V2 was not tested)
06 [1baf6789] (0/9) No match (V2 was not tested)
07 [05a9db5b] (0/9) No match (V2 was not tested)
08 [86e808fc] (0/9) No match (V2 was not tested)

Track Peak [ CRC32 ] [W/O NULL] [ LOG ]
– 100,0 [FE8B7890] [A3F9D80E] CRC32
01 100,0 [90643310] [0258B0A7]
02 100,0 [A47BC0DD] [DE3E5CFD]
03 100,0 [928CEC17] [8CC03EF6]
04 100,0 [B168B486] [7FFAA7E2]
05 100,0 [5733B6AF] [0472CF0A]
06 100,0 [EBD9ED73] [E4220DD8]
07 100,0 [D32E3EAB] [C4D0915F]
08 100,0 [E5F0D9B6] [E3FB12F6]

Thanks to terr83

Welcome to My Blog!

Museo Rosenbach – Zarathustra (1973) [Reissue 2011] (Repost) Download, Warez, DDL, Free, Full Album, Torrent, Legal.

Download


  • Recent Posts

  • Recent Tags