Muddy Waters – Muddy Waters at Newport 1960 (1960) (2001 Remastered) {MCA}

Download
Muddy Waters - Muddy Waters at Newport 1960 (1960) (2001 Remastered) {MCA}

Muddy Waters – Muddy Waters at Newport 1960 (1960) (2001 Remastered)
EAC Rip | FLAC (tracks+.cue, log) | Artwork | 315 mb | MP3 CBR 320kbps | RAR | 143 mb
Blues Rock, Chicago Blues | Label: MCA Records – UICY-3200

At Newport 1960 is a live album by Muddy Waters performed at Newport Jazz Festival in Newport, Rhode Island, with his backing band, consisting of Otis Spann (piano, vocals), Pat Hare (guitar), James Cotton (harmonica), Andrew Stevens (bass) and Francis Clay (drums), on July 3. Waters’s performances across Europe in the 1950s and at Newport helped popularize blues to a broader audience, especially to whites. The album is said to be one of the first live blues albums.

Muddy Waters - Muddy Waters at Newport 1960 (1960) (2001 Remastered) {MCA}

For many back in the early ’60s, this was their first exposure to live recorded blues, and it’s still pretty damn impressive some 40-plus years down the line. Muddy, with a band featuring Otis Spann, James Cotton, and guitarist Pat Hare, lays it down tough and cool with a set that literally had ’em dancing in the aisles by the set closer, a rippling version of "Got My Mojo Working," reprised again in a short encore version. Kicking off the album with a version of "I’ve Got My Brand on You" that positively burns the relatively tame (in comparison) studio take, Waters heads full bore through impressive versions of "Hoochie Coochie Man," Big Bill Broonzy’s "Feel So Good," and "Tiger in Your Tank."

Muddy Waters - Muddy Waters at Newport 1960 (1960) (2001 Remastered) {MCA}

A great breakthrough moment in blues history, where the jazz audience opened its ears and embraced Chicago blues. This album was in print almost continuously on vinyl for 20-plus years, and MCA reissued it in a fair CD version in 1986.

Muddy Waters - Muddy Waters at Newport 1960 (1960) (2001 Remastered) {MCA}

At least one enterprising European bootlegger issued their version in the early 1990s, but the real edition of this album to get is the March 2001 remastering from MCA. Transferred in high-resolution digital audio, it brings up the bass overall and the details of just about every aspect of the playing, as well as moving Muddy’s singing several layers forward in the mix, so that one gets a very vivid stage ambience, making the original CD seem very ragged.

Muddy Waters - Muddy Waters at Newport 1960 (1960) (2001 Remastered) {MCA}

The reissue has been augmented by the presence of four studio sides cut by the same group a month prior to the concert – none hold a candle to the live material, but they do fill in a few hole in Muddy’s U.S. discography. The new notes by Mary Katherine Aldin also give a much better picture of the background of the show and Muddy’s performance (so where’s the film of the performance that she mentions?)

Review by Cub Koda & Bruce Eder

Tracklist:

Muddy Waters - Muddy Waters at Newport 1960 (1960) (2001 Remastered) {MCA}

01. I Got My Brand On You
02. (I’m Your) Hoochie Coochie Man
03. Baby, Please Don’t Go
04. Soon Forgotten
05. Tiger In Your Tank
06. I Feel So Good
07. I’ve Got My Mojo Working
08. I’ve Got My Mojo Working, Part 2
09. Goodbye Newport Blues

2001 remastered issue bonus tracks
10. I Got My Brand On You (Mono)
11. Soon Forgotten (Mono)
12. Tiger In Your Tank (Mono)
13. Meanest Woman (Mono)

Muddy Waters - Muddy Waters at Newport 1960 (1960) (2001 Remastered) {MCA}

EAC log
EAC extraction logfile from 29. July 2005, 3:08 for CD
Muddy Waters / At Newport 1960

Used drive : TOSHIBA CD-ROM XM-6202B Adapter: 1 ID: 0
Read mode : Secure with NO C2, accurate stream, disable cache
Read offset correction : 686
Overread into Lead-In and Lead-Out : Yes

Used output format : Internal WAV Routines
44.100 Hz; 16 Bit; Stereo

Other options :
Fill up missing offset samples with silence : Yes
Delete leading and trailing silent blocks : No
Native Win32 interface for Win NT & 2000

Track 1
Filename E:torrentsMuddy Waters – At Newport 1960 (2001) [FLAC] (Remastered & Revisited)1 – I Got My Brand On You.wav

Pre-gap length 0:00:02.00

Peak level 98.8 %
Track quality 99.9 %
Test CRC A036126F
Copy CRC A036126F
Copy OK

Track 2
Filename E:torrentsMuddy Waters – At Newport 1960 (2001) [FLAC] (Remastered & Revisited)2 – (I’m Your) Hoochie Coochie Man.wav

Peak level 98.8 %
Track quality 100.0 %
Test CRC 9BDE90D5
Copy CRC 9BDE90D5
Copy OK

Track 3
Filename E:torrentsMuddy Waters – At Newport 1960 (2001) [FLAC] (Remastered & Revisited)3 – Baby, Please Don’t Go.wav

Peak level 98.8 %
Track quality 100.0 %
Test CRC 1CB8BB20
Copy CRC 1CB8BB20
Copy OK

Track 4
Filename E:torrentsMuddy Waters – At Newport 1960 (2001) [FLAC] (Remastered & Revisited)4 – Soon Forgotten.wav

Peak level 98.8 %
Track quality 100.0 %
Test CRC 8B0FE63D
Copy CRC 8B0FE63D
Copy OK

Track 5
Filename E:torrentsMuddy Waters – At Newport 1960 (2001) [FLAC] (Remastered & Revisited)5 – Tiger In Your Tank.wav

Peak level 98.8 %
Track quality 100.0 %
Test CRC F96A8EA3
Copy CRC F96A8EA3
Copy OK

Track 6
Filename E:torrentsMuddy Waters – At Newport 1960 (2001) [FLAC] (Remastered & Revisited)6 – I Feel So Good.wav

Peak level 98.8 %
Track quality 100.0 %
Test CRC 792A5D1C
Copy CRC 792A5D1C
Copy OK

Track 7
Filename E:torrentsMuddy Waters – At Newport 1960 (2001) [FLAC] (Remastered & Revisited)7 – I’ve Got My Mojo Working.wav

Peak level 98.8 %
Track quality 100.0 %
Test CRC 79193C65
Copy CRC 79193C65
Copy OK

Track 8
Filename E:torrentsMuddy Waters – At Newport 1960 (2001) [FLAC] (Remastered & Revisited)8 – I’ve Got My Mojo Working, Part 2.wav

Peak level 98.8 %
Track quality 100.0 %
Test CRC 74BD9231
Copy CRC 74BD9231
Copy OK

Track 9
Filename E:torrentsMuddy Waters – At Newport 1960 (2001) [FLAC] (Remastered & Revisited)9 – Goodbye Newport Blues.wav

Peak level 98.8 %
Track quality 100.0 %
Test CRC E945F852
Copy CRC E945F852
Copy OK

Track 10
Filename E:torrentsMuddy Waters – At Newport 1960 (2001) [FLAC] (Remastered & Revisited)10 – I Got My Brand On You (mono).wav

Pre-gap length 0:00:02.96

Peak level 98.8 %
Track quality 100.0 %
Test CRC 17F5D3E5
Copy CRC 17F5D3E5
Copy OK

Track 11
Filename E:torrentsMuddy Waters – At Newport 1960 (2001) [FLAC] (Remastered & Revisited)11 – Soon Forgotten (mono).wav

Pre-gap length 0:00:02.96

Peak level 98.8 %
Track quality 100.0 %
Test CRC B7614D66
Copy CRC B7614D66
Copy OK

Track 12
Filename E:torrentsMuddy Waters – At Newport 1960 (2001) [FLAC] (Remastered & Revisited)12 – Tiger In Your Tank (mono).wav

Pre-gap length 0:00:02.96

Peak level 98.8 %
Track quality 100.0 %
Test CRC 27B75EF5
Copy CRC 27B75EF5
Copy OK

Track 13
Filename E:torrentsMuddy Waters – At Newport 1960 (2001) [FLAC] (Remastered & Revisited)13 – Meanest Woman (mono).wav

Pre-gap length 0:00:02.96

Peak level 98.8 %
Track quality 99.9 %
Test CRC 09697CFF
Copy CRC 09697CFF
Copy OK

No errors occured

End of status report

Thanks to the Original customer.

Muddy Waters – Muddy Waters at Newport 1960 (1960) (2001 Remastered) {MCA} Download, Warez, DDL, Free, Full Album, Torrent, Legal.

Download