Mr. Mister – Welcome To The Real World (1985) | ViralVideoPk

Daily Dose of Free Downloads

Mr. Mister – Welcome To The Real World (1985)

Download

Mr. Mister - Welcome To The Real World (1985)

Mr. Mister – Welcome To The Real World (1985)
EAC Rip | FLAC (Img) + Cue + Log ~ 295 Mb | MP3 CBR320 ~ 105 Mb
Scans (JPG, 400 dpi) ~ 31 Mb | RAR 5% Recovery
Pop Rock | RCA / Victor #PCD1-8045 | Japan for US

Mr. Mister was an American pop rock band most popular in the 1980s. The band’s name came from an inside joke about a Weather Report album called Mr. Gone where they referred to each other as "Mister This" or "Mister That", and eventually selected "Mr. Mister." Mr. Mister may be considered as representative of the melodic sound of 1980s pop rock. The band consisted of Richard Page on lead vocals and bass guitar, Steve George on keyboards/backing vocals, Pat Mastelotto on acoustic and electronic drums/percussion and Steve Farris on guitars/backing vocals. Welcome to the Real World was the second album by band Mr. Mister. Released in 1985, it climbed to #1 on the Billboard album charts during early 1986. Two singles from the album, "Broken Wings" and "Kyrie" both went to #1 on the US singles chart. Another single from the album, "Is It Love," was another top 10 hit for the band, peaking at #8 on the Billboard chart.

~ Wiki

Mr. Mister - Welcome To The Real World (1985)

Wiki | Discogs | All Music

***************

Mr. Mister - Welcome To The Real World (1985)

Track List:

01. Black/White [4:19]
02. Uniform Of Youth [4:26]
03. Don’t Slow Down [4:30]
04. Run To Her [3:38]
05. Into My Own Hands [5:12]
06. Is It Love [3:35]
07. Kyrie [4:26]
08. Broken Wings [5:46]
09. Tangent Tears [3:21]
10. Welcome To The Real World [4:21]

EAC Log
Exact Audio Copy V1.1 from 23. June 2015

EAC extraction logfile from 25. December 2016, 12:02

Mr. Mister / Welcome To The Real World

Used drive : HL-DT-STDVDRAM GH22NS40 Adapter: 1 ID: 0

Read mode : Secure
Utilize accurate stream : Yes
Defeat audio cache : Yes
Make use of C2 pointers : No

Read offset correction : 667
Overread into Lead-In and Lead-Out : No
Fill up missing offset samples with silence : Yes
Delete leading and trailing silent blocks : No
Null samples used in CRC calculations : Yes
Used interface : Native Win32 interface for Win NT & 2000

Used output format : User Defined Encoder
Selected bitrate : 1024 kBit/s
Quality : High
Add ID3 tag : No
Command line compressor : C:Program FilesExact Audio CopyFlacflac.exe
Additional command line options : -V -8 -T "Date=%year%" -T "Genre=%genre%" %source%

TOC of the extracted CD

Track | Start | Length | Start sector | End sector
––––––––––––––––––––––––––––-
1 | 0:00.00 | 4:19.10 | 0 | 19434
2 | 4:19.10 | 4:26.35 | 19435 | 39419
3 | 8:45.45 | 4:29.40 | 39420 | 59634
4 | 13:15.10 | 3:38.22 | 59635 | 76006
5 | 16:53.32 | 5:11.58 | 76007 | 99389
6 | 22:05.15 | 3:34.52 | 99390 | 115491
7 | 25:39.67 | 4:25.43 | 115492 | 135409
8 | 30:05.35 | 5:46.22 | 135410 | 161381
9 | 35:51.57 | 3:21.03 | 161382 | 176459
10 | 39:12.60 | 4:20.47 | 176460 | 196006

Range status and errors

Selected range

Filename I:RipspowermetMr. Mister – Welcome To The Real World.wav

Peak level 97.8 %
Extraction speed 5.5 X
Range quality 100.0 %
Test CRC 273101FF
Copy CRC 273101FF
Copy OK

No errors occurred

AccurateRip summary

Track 1 accurately ripped (confidence 69) [EFD29B61] (AR v2)
Track 2 accurately ripped (confidence 70) [2F5B72DD] (AR v2)
Track 3 accurately ripped (confidence 69) [E4FB814F] (AR v2)
Track 4 accurately ripped (confidence 70) [B806759B] (AR v2)
Track 5 accurately ripped (confidence 70) [5DB01C24] (AR v2)
Track 6 accurately ripped (confidence 70) [DBABF678] (AR v2)
Track 7 accurately ripped (confidence 72) [50F47F72] (AR v2)
Track 8 accurately ripped (confidence 70) [BE82A7C9] (AR v2)
Track 9 accurately ripped (confidence 69) [0B0471E6] (AR v2)
Track 10 accurately ripped (confidence 69) [85830F28] (AR v2)

All tracks accurately ripped

End of status report

–– CUETools DB Plugin V2.1.6

[CTDB TOCID: 2PZ3qS5K.ld7t4d69MszWm51qz0-] found
Submit result: already submitted
Track | CTDB Status
1 | (108/108) Accurately ripped
2 | (107/108) Accurately ripped
3 | (108/108) Accurately ripped
4 | (108/108) Accurately ripped
5 | (108/108) Accurately ripped
6 | (108/108) Accurately ripped
7 | (108/108) Accurately ripped
8 | (108/108) Accurately ripped
9 | (108/108) Accurately ripped
10 | (106/108) Accurately ripped

==== Log checksum D1127F9795F7306B8110BA84D9FC767A081873E180363911FCA2D6F851C75F3D ====

DR Log
foobar2000 1.2.6 / Dynamic Range Meter 1.1.1
log date: 2016-12-28 16:37:46

––––––––––––––––––––––––––––––––––––––––
Analyzed: Mr. Mister / Welcome To The Real World
––––––––––––––––––––––––––––––––––––––––

DR Peak RMS Duration Track
––––––––––––––––––––––––––––––––––––––––
DR13 -0.18 dB -14.99 dB 4:19 01-Black/White
DR12 -1.58 dB -15.75 dB 4:26 02-Uniform Of Youth
DR13 -0.96 dB -16.38 dB 4:30 03-Don’t Slow Down
DR12 -4.70 dB -19.99 dB 3:38 04-Run To Her
DR12 -2.74 dB -17.20 dB 5:12 05-Into My Own Hands
DR12 -1.61 dB -15.72 dB 3:35 06-Is It Love
DR12 -1.98 dB -16.34 dB 4:26 07-Kyrie
DR12 -3.09 dB -17.38 dB 5:46 08-Broken Wings
DR13 -3.29 dB -18.51 dB 3:21 09-Tangent Tears
DR13 -2.26 dB -17.17 dB 4:21 10-Welcome To The Real World
––––––––––––––––––––––––––––––––––––––––

Number of tracks: 10
Official DR value: DR12

Samplerate: 44100 Hz
Channels: 2
Bits per sample: 16
Bitrate: 901 kbps
Codec: FLAC
================================================================================

CUETools Log
[CUETools log; Date: 28.12.2016 16:36:38; Version: 2.1.5]
[CTDB TOCID: 2PZ3qS5K.ld7t4d69MszWm51qz0-] found.
Track | CTDB Status
1 | (109/109) Accurately ripped
2 | (108/109) Accurately ripped
3 | (109/109) Accurately ripped
4 | (109/109) Accurately ripped
5 | (109/109) Accurately ripped
6 | (109/109) Accurately ripped
7 | (109/109) Accurately ripped
8 | (109/109) Accurately ripped
9 | (109/109) Accurately ripped
10 | (107/109) Accurately ripped
[AccurateRip ID: 0010756e-0083c9d5-780a350a] found.
Track [ CRC | V2 ] Status
01 [9aa63db5|efd29b61] (066+069/149) Accurately ripped
02 [d07b9c11|2f5b72dd] (067+070/151) Accurately ripped
03 [ba72f545|e4fb814f] (068+069/151) Accurately ripped
04 [3cf7f32e|b806759b] (066+070/150) Accurately ripped
05 [a45f5b5c|5db01c24] (063+070/147) Accurately ripped
06 [8ba2ca79|dbabf678] (066+070/150) Accurately ripped
07 [9d998ef7|50f47f72] (068+072/154) Accurately ripped
08 [31fe571b|be82a7c9] (067+070/150) Accurately ripped
09 [ed36f649|0b0471e6] (065+069/147) Accurately ripped
10 [bfc0e5c9|85830f28] (064+069/146) Accurately ripped
Offsetted by 611:
01 [daa61aca] (008/149) Accurately ripped
02 [7fc095c8] (008/151) Accurately ripped
03 [ce8a6de7] (008/151) Accurately ripped
04 [95a2d6d0] (008/150) Accurately ripped
05 [44b4b545] (008/147) Accurately ripped
06 [e2b658ce] (008/150) Accurately ripped
07 [4196a63d] (008/154) Accurately ripped
08 [2c8d8969] (008/150) Accurately ripped
09 [0777a5c2] (008/147) Accurately ripped
10 [2ae8b364] (008/146) Accurately ripped

Track Peak [ CRC32 ] [W/O NULL] [ LOG ]
– 97,8 [273101FF] [B1EAF6F4] CRC32
01 97,8 [3F24A9A9] [DF1F93FB]
02 83,3 [13B5D9A1] [9CDE628D]
03 89,5 [07B78B19] [174B9CD6]
04 58,2 [7D3ABAF7] [1A42DB48]
05 72,9 [0604AB84] [57537A13]
06 83,0 [011F8EE5] [07DD5BC3]
07 79,5 [1B2947E6] [9D0D5864]
08 70,1 [9E3B3E5F] [49019D00]
09 68,4 [7D60D7A9] [926F9D5A]
10 77,0 [89E44A36] [42590D3A]

Mr. Mister - Welcome To The Real World (1985)

Mr. Mister - Welcome To The Real World (1985)

All thanks go to powermet

> Visit my blog <

Download:

Mr. Mister – Welcome To The Real World (1985) Download, Warez, DDL, Free, Full Album, Torrent, Legal.

Download


  • Recent Posts

  • Recent Tags