Mozart – Le nozze di Figaro (Arnold Ostman, Arleen Auger, Della Jones, Barbara Bonney)

Download
Mozart - Le nozze di Figaro (Arnold Ostman, Arleen Auger, Della Jones, Barbara Bonney)

Mozart – Le nozze di Figaro (Arnold Ostman, Arleen Auger, Della Jones, Barbara Bonney) [1990]
EAC Rip | FLAC, IMG+CUE, LOG | Covers | 3cd, 688 MB
Classical | Label: Oiseau Lyre London / Decca | Catalog Number: 421 333-2 | TT: 186’28

In 1988 when this period-instrument Figaro was released, the style was still a novelty, and Ostman gained some notoreity for his rushed tempos as well as the scrawniness of his chamber orchestra, by far the smallest to play this great opera on CD. Yet when I read a glowing review by Andrew Porter in the New Yorker, I immediately bought the performance, shortly discovering that it was a true gem in the extensive Figaro catalog.

It sitll possesses the two most charming and lovable leads one can imagine, the Susanna of Barbara Bonney, who has no peer on records for wit and inner life, and her Figaro, the unknown but ardently appealing Petteri Salomaa. The Count of Hakan Hagegard is as good as any I’ve ever heard, and although Arleen Auger is too passive as the Countess, her voice is meltingly lovely.

What drives this performance is its dramatic spontaneity. The comedy is actually funny (as opposed to the forced business that one usually hears in Figaro) thanks to the stage experience the cast gained in a production at Stockholm’s famed jewel of a court theater, the Drottningholm. The intimacy of a period produciton gives everything an intimate feeling and thus brings out Mozart’s subtle shadings of wit, pathos, humane tolerance, and above all his devotion to love’s saving grace. I’ve been deeply touched but also greatly entertained by this set for almsot twenty years, and I don’t expect its like to come along any time soon–it certainly hasn’t in the interim.
By Santa Fe Listener

Performer:
Il Conte di Almaviva – Håkan Hagegård (Baritone)
La Contessa – Arleen Augér (Soprano)
Susanna – Barbara Bonney (Soprano)
Figaro – Petteri Salomaa (Bass Baritone)
Cherubino – Alicia Nafé (Mezzo Soprano)
Marcellina – Della Jones (Mezzo Soprano)
Bartolo – Carlos Feller (Bass)
Don Basilio – Edoardo Giménez (Tenor)
Don Curzio – Francis Egerton (Tenor)
Barbarina – Nancy Argenta (Soprano)
Antonio – Enzo Florimo (Bass)
Duo donne – Viveka Anderberg, Maria Höglind (Sopranos)

The Drottningholm Court Theatre Orchestra and Chorus
Conductor – Arnold Östman

Libretto: Lorenzo da Ponte

Tracklisting:
CD1 [64:56]
1. Sinfonia (3:51)
2. Atto I. Duetto- Cinque…dieci…venti…trenta (Figaro, Susanna) (3:19)
3. Duetto- Se a caso madama (Figaro, Susanna) (4:56)
4. Cavatina- Se vuol ballare (Figaro) (3:05)
5. Aria- La vendetta, oh, la vendetta (Bartolo) (3:10)
6. Recit- Tutto ancor non ho perso… Duetto- Via, resti servita (Marcellina, Su… (4:52)
7. Aria- Non so piu cosa son, cosa faccio (Cherubino) (5:57)
8. Terzetto- Cosa sento! tosto andate (Conte, Basilio, Susanna) (5:24)
9. Giovani liete (Coro) (4:29)
10. Aria- Non piu andrai, farfallone amoroso (Figaro) (3:34)
11. Atto II. Cavatina- Porgi, amor (Contessa) (7:37)
12. Canzano- Voi che sapete (Cherubino) (3:34)
13. Aria- Venite…inginocchiatevi (Susanna) (5:22)
14. Appendice. Tutto ancor non ho perso… Signora mia garbata (Marcellina) (2:07)
15. Un moto di gioia (Susanna) (3:26)

CD2 [63:10]
1. Atto II (continuare). Che novita! (Conte, Contessa) (1:20)
2. Terzetto- Susanna, or via, sortite (Conte, Contessa, Susanna) (3:29)
3. Duetto- Aprite, presto, aprite (Susanna, Cherubino) (2:31)
4. Finale- Esci, ormai, garzon malnato (Conte, Contessa) (7:55)
5. Signori, di fuori (Figaro) (3:06)
6. Ah! signor…signor (Antonio) (5:42)
7. Voi signor, che giusto siete (Marcellina, Basilio, Bartolo) (3:42)
8. Atto III. Recit- Che imbarazzo e mai questo! (Conte, Contessa, Susanna) (2:19)
9. Duetto- Crudeli perche finora (Conte, Susanna) (3:11)
10. Recit ed Aria- Hai gia vinta la causa! (Conte) (6:04)
11. Sestetto- Riconosci in questo amplesso (Marcellina, Figaro, Bartolo, Don Curz… (6:37)
12. Recit ed Aria- E Susanna non vien! (Contessa) (5:46)
13. Appendice. Aprite, presto, aprite (Susanna) (0:56)
14. Recit ed Aria- Hai gia vinta la causa… Vedro mentr’io sospiro (Conte) (4:50)
15. Recit ed Aria- E Susanna non vien… Dove sono (Contessa) (5:09)

CD3 [58:22]
1. Atto III (continuare). Recit- Io vi dico, signor (Antonio, Conte, Contessa, S… (1:10)
2. Duetto- (Sull’aria…) – Che soave zeffiretto (Susanna, Contessa) (2:41)
3. Coro- Ricevete, o padroncina (Coro) (3:59)
4. Finale- Ecco la marcia (Figaro, Susanna, Conte, Contessa) (5:58)
5. Atto IV. Cavatina- L’ho perduta… me meschina! (Barbarina) (3:45)
6. Aria- Il capro e la capretta (Marcellina) (5:19)
7. Aria- In quegli anni in cui vai poco (Basilio) (3:49)
8. Recit ed Aria- Tutto e disposto (Figaro) (5:05)
9. Recit- Giunse alfin il momento – Aria- Deh, Vieni, Non Tardar (Susanna) (4:09)
10. Finale- Pian pianin le andro piu presso (Cherubino, Contessa) (5:07)
11. Tutto e tranquillo e placido (Figaro) (4:35)
12. Gente, gente, all’armi, all’armi (Conte) (4:52)
13. Appendice. Giunse alfin il momento… Al desio di chi t’adora (Susanna) (7:28)

LOG
Exact Audio Copy V1.0 beta 3 from 29. August 2011

EAC extraction logfile from 18. January 2014, 17:05

– / Mozart – Le nozze di Figaro (Ostman A.) – CD 1

Used drive : ATAPI iHAS122 C Adapter: 0 ID: 1

Read mode : Secure
Utilize accurate stream : Yes
Defeat audio cache : Yes
Make use of C2 pointers : No

Read offset correction : 6
Overread into Lead-In and Lead-Out : No
Fill up missing offset samples with silence : Yes
Delete leading and trailing silent blocks : No
Null samples used in CRC calculations : Yes
Used interface : Installed external ASPI interface

Used output format : User Defined Encoder
Selected bitrate : 192 kBit/s
Quality : High
Add ID3 tag : No
Command line compressor : C:Program FilesExact Audio CopyFlacflac.exe
Additional command line options : -V -8 -T "Date=%year%" -T "Genre=%genre%" %source%

TOC of the extracted CD

Track | Start | Length | Start sector | End sector
––––––––––––––––––––––––––––-
1 | 0:00.32 | 3:50.70 | 32 | 17351
2 | 3:51.27 | 3:18.73 | 17352 | 32274
3 | 7:10.25 | 4:56.17 | 32275 | 54491
4 | 12:06.42 | 3:05.23 | 54492 | 68389
5 | 15:11.65 | 3:09.15 | 68390 | 82579
6 | 18:21.05 | 4:52.55 | 82580 | 104534
7 | 23:13.60 | 5:56.72 | 104535 | 131306
8 | 29:10.57 | 5:23.18 | 131307 | 155549
9 | 34:34.00 | 4:29.27 | 155550 | 175751
10 | 39:03.27 | 3:43.00 | 175752 | 192476
11 | 42:46.27 | 7:37.13 | 192477 | 226764
12 | 50:23.40 | 3:34.17 | 226765 | 242831
13 | 53:57.57 | 5:22.05 | 242832 | 266986
14 | 59:19.62 | 2:10.68 | 266987 | 276804
15 | 61:30.55 | 3:25.67 | 276805 | 292246

Range status and errors

Selected range

Filename C:Program FilesExact Audio CopyFlacMozart – Le nozze di Figaro (Ostman A.) – CD 1.wav

Peak level 91.8 %
Extraction speed 9.9 X
Range quality 100.0 %
Test CRC 561387DA
Copy CRC 561387DA
Copy OK

No errors occurred

AccurateRip summary

Track 1 accurately ripped (confidence 8) [23AF41EB] (AR v2)
Track 2 accurately ripped (confidence 8) [4CDE4B00] (AR v2)
Track 3 accurately ripped (confidence 7) [288FC318] (AR v2)
Track 4 accurately ripped (confidence 7) [EB67F62D] (AR v2)
Track 5 accurately ripped (confidence 8) [5B6B8C87] (AR v2)
Track 6 accurately ripped (confidence 8) [4F3FC77F] (AR v2)
Track 7 accurately ripped (confidence 8) [3AE4D5C3] (AR v2)
Track 8 accurately ripped (confidence 8) [660AC649] (AR v2)
Track 9 accurately ripped (confidence 8) [6AA43C27] (AR v2)
Track 10 accurately ripped (confidence 7) [D6420E1C] (AR v2)
Track 11 accurately ripped (confidence 7) [C536DA6F] (AR v2)
Track 12 accurately ripped (confidence 7) [0B77DC30] (AR v2)
Track 13 accurately ripped (confidence 6) [AAC7BF6D] (AR v2)
Track 14 accurately ripped (confidence 8) [9C0EE2C1] (AR v2)
Track 15 accurately ripped (confidence 8) [3ADD0F7F] (AR v2)

All tracks accurately ripped

End of status report

==== Log checksum ECF7695BE81320514DAFFAE407510829D4D16F27552A76AC4C179BF59062D901 ====

LOG
Exact Audio Copy V1.0 beta 3 from 29. August 2011

EAC extraction logfile from 18. January 2014, 17:52

– / Mozart – Le nozze di Figaro (Ostman A.) – CD 2

Used drive : ATAPI iHAS122 C Adapter: 0 ID: 1

Read mode : Secure
Utilize accurate stream : Yes
Defeat audio cache : Yes
Make use of C2 pointers : No

Read offset correction : 6
Overread into Lead-In and Lead-Out : No
Fill up missing offset samples with silence : Yes
Delete leading and trailing silent blocks : No
Null samples used in CRC calculations : Yes
Used interface : Installed external ASPI interface

Used output format : User Defined Encoder
Selected bitrate : 192 kBit/s
Quality : High
Add ID3 tag : No
Command line compressor : C:Program FilesExact Audio CopyFlacflac.exe
Additional command line options : -V -8 -T "Date=%year%" -T "Genre=%genre%" %source%

TOC of the extracted CD

Track | Start | Length | Start sector | End sector
––––––––––––––––––––––––––––-
1 | 0:00.33 | 1:19.65 | 33 | 6022
2 | 1:20.23 | 3:29.40 | 6023 | 21737
3 | 4:49.63 | 2:31.07 | 21738 | 33069
4 | 7:20.70 | 7:54.05 | 33070 | 68624
5 | 15:15.00 | 3:06.28 | 68625 | 82602
6 | 18:21.28 | 5:42.05 | 82603 | 108257
7 | 24:03.33 | 3:49.62 | 108258 | 125494
8 | 27:53.20 | 2:19.18 | 125495 | 135937
9 | 30:12.38 | 3:10.50 | 135938 | 150237
10 | 33:23.13 | 6:04.50 | 150238 | 177587
11 | 39:27.63 | 6:36.62 | 177588 | 207349
12 | 46:04.50 | 6:00.25 | 207350 | 234374
13 | 52:05.00 | 1:00.28 | 234375 | 238902
14 | 53:05.28 | 4:55.67 | 238903 | 261094
15 | 58:01.20 | 5:09.08 | 261095 | 284277


Range status and errors

Selected range

Filename C:Program FilesExact Audio CopyFlacMozart – Le nozze di Figaro (Ostman A.) – CD 2.wav

Peak level 95.9 %
Extraction speed 3.5 X
Range quality 100.0 %
Test CRC 8E1A888F
Copy CRC 8E1A888F
Copy OK

No errors occurred

AccurateRip summary

Track 1 accurately ripped (confidence 8) [0D721D14] (AR v2)
Track 2 accurately ripped (confidence 8) [3A728442] (AR v2)
Track 3 accurately ripped (confidence 8) [30E17970] (AR v2)
Track 4 accurately ripped (confidence 8) [D36DD12B] (AR v2)
Track 5 accurately ripped (confidence 8) [1FD85720] (AR v2)
Track 6 accurately ripped (confidence 8) [8C86B1E6] (AR v2)
Track 7 accurately ripped (confidence 8) [7241A6E0] (AR v2)
Track 8 accurately ripped (confidence 8) [2112E42B] (AR v2)
Track 9 accurately ripped (confidence 8) [C92F57CE] (AR v2)
Track 10 accurately ripped (confidence 8) [2302E963] (AR v2)
Track 11 accurately ripped (confidence 8) [08268AAB] (AR v2)
Track 12 accurately ripped (confidence 8) [741A4006] (AR v2)
Track 13 accurately ripped (confidence 8) [F4FA910B] (AR v2)
Track 14 accurately ripped (confidence 8) [C5B974B3] (AR v2)
Track 15 accurately ripped (confidence 8) [020B934A] (AR v2)

All tracks accurately ripped

End of status report

==== Log checksum 99C02B3E238589DD16158FAA75F655E1E5B8673D6ED736DBEF61A4D2E4F4E901 ====

LOG
Exact Audio Copy V1.0 beta 3 from 29. August 2011

EAC extraction logfile from 18. January 2014, 18:38

– / Mozart – Le nozze di Figaro (Ostman A.) – CD 3

Used drive : ATAPI iHAS122 C Adapter: 0 ID: 1

Read mode : Secure
Utilize accurate stream : Yes
Defeat audio cache : Yes
Make use of C2 pointers : No

Read offset correction : 6
Overread into Lead-In and Lead-Out : No
Fill up missing offset samples with silence : Yes
Delete leading and trailing silent blocks : No
Null samples used in CRC calculations : Yes
Used interface : Installed external ASPI interface

Used output format : User Defined Encoder
Selected bitrate : 192 kBit/s
Quality : High
Add ID3 tag : No
Command line compressor : C:Program FilesExact Audio CopyFlacflac.exe
Additional command line options : -V -8 -T "Date=%year%" -T "Genre=%genre%" %source%

TOC of the extracted CD

Track | Start | Length | Start sector | End sector
––––––––––––––––––––––––––––-
1 | 0:00.33 | 1:09.65 | 33 | 5272
2 | 1:10.23 | 2:41.47 | 5273 | 17394
3 | 3:51.70 | 3:58.33 | 17395 | 35277
4 | 7:50.28 | 6:08.22 | 35278 | 62899
5 | 13:58.50 | 3:44.25 | 62900 | 79724
6 | 17:43.00 | 5:19.08 | 79725 | 103657
7 | 23:02.08 | 3:49.15 | 103658 | 120847
8 | 26:51.23 | 5:05.12 | 120848 | 143734
9 | 31:56.35 | 4:09.05 | 143735 | 162414
10 | 36:05.40 | 5:07.05 | 162415 | 185444
11 | 41:12.45 | 4:35.25 | 185445 | 206094
12 | 45:47.70 | 5:06.65 | 206095 | 229109
13 | 50:54.60 | 7:27.35 | 229110 | 262669

Range status and errors

Selected range

Filename C:Program FilesExact Audio CopyFlacMozart – Le nozze di Figaro (Ostman A.) – CD 3.wav

Peak level 100.0 %
Extraction speed 3.2 X
Range quality 99.9 %
Test CRC 699AAEEE
Copy CRC 699AAEEE
Copy OK

No errors occurred

AccurateRip summary

Track 1 accurately ripped (confidence 8) [96FA233F] (AR v2)
Track 2 accurately ripped (confidence 8) [40612D41] (AR v2)
Track 3 accurately ripped (confidence 8) [2A7B9E5A] (AR v2)
Track 4 accurately ripped (confidence 8) [611E6755] (AR v2)
Track 5 accurately ripped (confidence 8) [7EE176F5] (AR v2)
Track 6 accurately ripped (confidence 8) [41C31B29] (AR v2)
Track 7 accurately ripped (confidence 8) [8D7FCA8D] (AR v2)
Track 8 accurately ripped (confidence 8) [D76731BE] (AR v2)
Track 9 accurately ripped (confidence 8) [4536005B] (AR v2)
Track 10 accurately ripped (confidence 8) [28E4A1A7] (AR v2)
Track 11 accurately ripped (confidence 7) [04FD84FE] (AR v2)
Track 12 accurately ripped (confidence 8) [64DC063E] (AR v2)
Track 13 accurately ripped (confidence 8) [447DA14B] (AR v2)

All tracks accurately ripped

End of status report

==== Log checksum E29A6CFC0C21842399C1830D785A5A5B619A89DA1DFA8BA3F3EEA56D5773A3A8 ====

Mozart – Le nozze di Figaro (Arnold Ostman, Arleen Auger, Della Jones, Barbara Bonney) Download, Warez, DDL, Free, Full Album, Torrent, Legal.

Download