Mozart – Don Giovanni (Rene Jacobs) (2008) [Blu-Ray]

Download
Mozart - Don Giovanni (Rene Jacobs) (2008) [Blu-Ray]

Mozart – Don Giovanni (René Jacobs) (2008) [Blu-Ray]
BluRay | BDMV | MPEG-4 AVC Video / 20743 kbps / 1080i / 29,970 fps | 171 min | 44,8 Gb
Audio1: Italian / DTS-HD Master Audio / 2.0 / 24-bit | Audio2: DTS-HD Master Audio / 5.1 / 48 kHz / 4336 kbps / 24-bit

BluRay-rip | AVC | MKV 1920×1080 / 6215 kbps / 29,97 fps | 171 min | 9,32 Gb
Audio: Italian / DTS / 6ch / 48.0 KHz / 24 bits
Classical | Harmonia Mundi | Sub: Italian, French, English, German, Spanish

After the success of Così fan tutte and The Marriage of Figaro, René Jacobs’ CD recording of this centrepiece of the Mozart/Da Ponte trilogy offered us his reflections on Classical opera and garnered serious acclaim worldwide. Performed at the Innsbruck festival in August 2006 and filmed in Baden-Baden, this production is nourished by his thoughts on Don Giovanni as taboo-breaker but still respects Mozart’s intentions as closely as possible.
In the documentary Looking for Don Giovanni, the director Nayo Titzin follows the creation of this production in the search for musical truth.

Cast:
Don Giovanni – Johannes Weisser
Leporello – Marcos Fink
Donna Anna – Malin Byström
Donna Elvira – Alexandrina Pendatchanska
Zerlina – Sunhae Im
Masetto – Nikolay Borchev
Don Ottavio – Werner Güra
The Commendatore – Alessandro Guerzoni
Freiburger Barockorchester
Conductor – René Jacobs

BDInfo
Disc Title: DON GIOVANNI
Disc Size: 48 204 344 100 bytes
Protection: AACS
BD-Java: No
Playlist: 00001.MPLS
Size: 37 664 034 816 bytes
Length: 2:51:22.171
Total Bitrate: 29,30 Mbps
Video: MPEG-4 AVC Video / 20743 kbps / 1080i / 29,970 fps / 16:9 / High Profile 4.1
Audio: Italian / DTS-HD Master Audio / 2.0 / 48 kHz / 2273 kbps / 24-bit (DTS Core: 2.0 / 48 kHz / 1509 kbps / 24-bit)
Audio: Italian / DTS-HD Master Audio / 5.1 / 48 kHz / 4336 kbps / 24-bit (DTS Core: 5.1 / 48 kHz / 1509 kbps / 24-bit)
Subtitle: Italian / 35,692 kbps
Subtitle: French / 38,094 kbps
Subtitle: English / 38,747 kbps
Subtitle: German / 38,754 kbps
Subtitle: Spanish / 35,760 kbps

MediaInfo
General
Unique ID : 253611486123261109684471901267325457786 (0xBECBCBA84842CD798E0C5EE2F64D957A)
Complete name : C:Don_Giovanni.mkv
Format : Matroska
Format version : Version 2
File size : 9.33 GiB
Duration : 2h 51mn
Overall bit rate : 7 791 Kbps
Movie name : Don_Giovanni
Encoded date : UTC 2016-12-04 10:34:10
Writing application : DVDFab 9.1.6.8
Writing library : libebml v0.7.8 + libmatroska v0.8.1

Video
ID : 1
Format : AVC
Format/Info : Advanced Video Codec
Format profile : High@L4.1
Format settings, CABAC : Yes
Format settings, ReFrames : 2 frames
Codec ID : V_MPEG4/ISO/AVC
Duration : 2h 51mn
Bit rate : 6 215 Kbps
Width : 1 920 pixels
Height : 1 080 pixels
Display aspect ratio : 16:9
Frame rate mode : Constant
Frame rate : 29.970 fps
Color space : YUV
Chroma subsampling : 4:2:0
Bit depth : 8 bits
Scan type : Progressive
Bits/(Pixel*Frame) : 0.100
Stream size : 7.33 GiB (79%)
Writing library : x264 core 142
Encoding settings : cabac=1 / ref=1 / deblock=1:-1:-1 / analyse=0x3:0 / me=hex / subme=5 / psy=0 / mixed_ref=0 / me_range=16 / chroma_me=1 / trellis=0 / 8x8dct=1 / cqm=0 / deadzone=21,11 / fast_pskip=1 / chroma_qp_offset=0 / threads=8 / lookahead_threads=2 / sliced_threads=0 / nr=0 / decimate=1 / interlaced=0 / bluray_compat=0 / constrained_intra=0 / bframes=2 / b_pyramid=0 / b_adapt=1 / b_bias=0 / direct=1 / weightb=1 / open_gop=0 / weightp=0 / keyint=24 / keyint_min=13 / scenecut=40 / intra_refresh=0 / rc=abr / mbtree=0 / bitrate=6215 / ratetol=1.0 / qcomp=0.60 / qpmin=0 / qpmax=69 / qpstep=4 / ip_ratio=1.40 / pb_ratio=1.30 / aq=1:1.00
Default : Yes
Forced : No
Color primaries : BT.709
Transfer characteristics : BT.709
Matrix coefficients : BT.709
Color range : Limited

Audio
ID : 2
Format : DTS
Format/Info : Digital Theater Systems
Mode : 16
Format settings, Endianness : Big
Codec ID : A_DTS
Duration : 2h 51mn
Bit rate mode : Constant
Bit rate : 1 509 Kbps
Channel(s) : 6 channels
Channel positions : Front: L C R, Side: L R, LFE
Sampling rate : 48.0 KHz
Bit depth : 24 bits
Compression mode : Lossy
Stream size : 1.81 GiB (19%)
Language : Italian
Default : Yes
Forced : No

Text #1
ID : 3
Format : VobSub
Codec ID : S_VOBSUB
Codec ID/Info : The same subtitle format used on DVDs
Language : Italian
Default : Yes
Forced : No

Text #2
ID : 4
Format : VobSub
Codec ID : S_VOBSUB
Codec ID/Info : The same subtitle format used on DVDs
Language : French
Default : No
Forced : No

Text #3
ID : 5
Format : VobSub
Codec ID : S_VOBSUB
Codec ID/Info : The same subtitle format used on DVDs
Language : English
Default : No
Forced : No

Text #4
ID : 6
Format : VobSub
Codec ID : S_VOBSUB
Codec ID/Info : The same subtitle format used on DVDs
Language : German
Default : No
Forced : No

Text #5
ID : 7
Format : VobSub
Codec ID : S_VOBSUB
Codec ID/Info : The same subtitle format used on DVDs
Language : Spanish
Default : No
Forced : No

Menu
00:00:00.000 : en:Chapter 01
00:06:02.295 : en:Chapter 02
00:11:39.498 : en:Chapter 03
00:18:27.172 : en:Chapter 04
00:20:10.676 : en:Chapter 05
00:26:28.954 : en:Chapter 06
00:33:01.980 : en:Chapter 07
00:38:37.481 : en:Chapter 08
00:45:37.735 : en:Chapter 09
00:50:23.387 : en:Chapter 10
00:57:27.444 : en:Chapter 11
01:01:15.304 : en:Chapter 12
01:04:42.879 : en:Chapter 13
01:17:17.299 : en:Chapter 14
01:25:54.582 : en:Chapter 15
01:29:30.131 : en:Chapter 16
01:35:56.851 : en:Chapter 17
01:47:15.195 : en:Chapter 18
01:54:48.314 : en:Chapter 19
02:04:31.864 : en:Chapter 20
02:11:27.145 : en:Chapter 21
02:19:26.958 : en:Chapter 22
02:27:17.261 : en:Chapter 23
02:35:44.435 : en:Chapter 24
02:40:57.748 : en:Chapter 25

All screenshots taken from Blu-Ray

Mozart - Don Giovanni (Rene Jacobs) (2008) [Blu-Ray]
Mozart - Don Giovanni (Rene Jacobs) (2008) [Blu-Ray]
Mozart - Don Giovanni (Rene Jacobs) (2008) [Blu-Ray]
Mozart - Don Giovanni (Rene Jacobs) (2008) [Blu-Ray]

Mozart – Don Giovanni (Rene Jacobs) (2008) [Blu-Ray] Download, Warez, DDL, Free, Full Album, Torrent, Legal.

Download