Morcheeba – Blood Like Lemonade (2010) [Hidden Bonus Track Edition]

Download
Morcheeba - Blood Like Lemonade (2010) [Hidden Bonus Track Edition]

Morcheeba – Blood Like Lemonade (2010) [Hidden Bonus Track Edition]
EAC | FLAC | Image (Cue&Log) ~ 266 Mb | Mp3 (CBR320) ~111 Mb | Scans ~ 160 Mb | Time: 00:48:40
Downtempo, Trip-Hop, Electronic, Alternative | Label: PIAS/Soyuz | # 945.A201.020, PIASR 201 CD

A more literal return to form, Blood Like Lemonade builds on the familiar downtempo grooves that filled Morcheeba’s 2008 effort Dive Deep, but this time with original vocalist Skye Edwards back in the fray. Right from the opening dusty, minor-keyboard chord, the album is instantly identifiable for fans as stony, late-night grooves combine with melodies that are both pop-minded and soul-spirited. All the organic elements that sit on top of the slow, rolling drum machines are back, as is the sinister underbelly of their early material, although here it’s amped up a touch. The title track references “drinking blood like lemonade,” while “Recipe for Disaster” begins “Wanna know why there’s a dead guy in my dining room” before unveiling a story that’s somewhere between the Jesse James legend and Natural Born Killers. The sweet tricks are Edwards using her velvet voice to make it all sound delicious, along with her ability to be equally effective on the breezy, positive numbers like “I Am the Spring.” Add “Crimson,” which would be the quintessential Morcheeba song if “Rome Wasn’t Built in a Day” didn’t exist, and Blood Like Lemonade exceeds expectations, coming in a close second behind fan favorite Big Calm.

Review by David Jeffries, Allmusic.com

Morcheeba - Blood Like Lemonade (2010) [Hidden Bonus Track Edition]

Morcheeba at Allmusic
Morcheeba at Wiki

Tracklist:

01. Crimson (5:10)
02. Even Though (4:18)
03. Blood Like Lemonade (4:51)
04. Mandala (2:40)
05. I am the spring (3:27)
06. Recipe For Disaster (5:19)
07. Easier Said Than Done (3:41)
08. Cut To The Chase (4:18)
09. Self Made Man (5:09)
10. Beat Of The Drum (6:19)

Hidden Track:
11. Straight Ahead Master (3:26)

EAC log
Exact Audio Copy V0.99 prebeta 5 from 4. May 2009

EAC extraction logfile from 3. July 2010, 0:01

Morcheeba / Blood Like Lemonade

Used drive : PIONEER DVD-RW DVR-212 Adapter: 8 ID: 0

Read mode : Secure
Utilize accurate stream : Yes
Defeat audio cache : Yes
Make use of C2 pointers : No

Read offset correction : 48
Overread into Lead-In and Lead-Out : No
Fill up missing offset samples with silence : Yes
Delete leading and trailing silent blocks : No
Null samples used in CRC calculations : Yes
Used interface : Installed external ASPI interface

Used output format : Internal WAV Routines
Sample format : 44.100 Hz; 16 Bit; Stereo

TOC of the extracted CD

Track | Start | Length | Start sector | End sector
––––––––––––––––––––––––––––-
1 | 0:00.00 | 5:10.21 | 0 | 23270
2 | 5:10.21 | 4:18.14 | 23271 | 42634
3 | 9:28.35 | 4:51.23 | 42635 | 64482
4 | 14:19.58 | 2:39.45 | 64483 | 76452
5 | 16:59.28 | 3:26.38 | 76453 | 91940
6 | 20:25.66 | 5:19.29 | 91941 | 115894
7 | 25:45.20 | 3:41.27 | 115895 | 132496
8 | 29:26.47 | 4:18.30 | 132497 | 151876
9 | 33:45.02 | 5:09.33 | 151877 | 175084
10 | 38:54.35 | 6:19.00 | 175085 | 203509
11 | 45:13.35 | 3:26.08 | 203510 | 218967

Range status and errors

Selected range

Filename J:MP3Morcheeba (FLAC)[2010] Morcheeba – Blood Like LemonadeMorcheeba – Blood Like Lemonade.wav

Peak level 100.0 %
Range quality 100.0 %
Test CRC 33BF076D
Copy CRC 33BF076D
Copy OK

No errors occurred

AccurateRip summary

Track 1 not present in database
Track 2 not present in database
Track 3 not present in database
Track 4 not present in database
Track 5 not present in database
Track 6 not present in database
Track 7 not present in database
Track 8 not present in database
Track 9 not present in database
Track 10 not present in database
Track 11 not present in database

None of the tracks are present in the AccurateRip database

End of status report

AR log
[CUETools log; Date: 12.07.2017 5:11:49; Version: 2.1.4]
[CTDB TOCID: gbPJrEADqt46b48xKuZVBokEGBg-] found.
Track | CTDB Status
1 | (6/7) Accurately ripped, or (1/7) differs in 2 samples @02:52:46
2 | (6/7) Accurately ripped
3 | (7/7) Accurately ripped
4 | (7/7) Accurately ripped
5 | (7/7) Accurately ripped
6 | (7/7) Accurately ripped
7 | (7/7) Accurately ripped
8 | (7/7) Accurately ripped
9 | (7/7) Accurately ripped
10 | (7/7) Accurately ripped
11 | (7/7) Accurately ripped
[AccurateRip ID: 0013c8e7-00ab39fd-820b670b] found.
Track [ CRC | V2 ] Status
01 [7ae504df|a7d658b7] (2+2/7) Accurately ripped
02 [d2f5f623|fb462dac] (2+2/7) Accurately ripped
03 [56b1116b|e25863af] (2+2/7) Accurately ripped
04 [eb735d4e|e83b62f9] (2+2/7) Accurately ripped
05 [d97c5f6c|292e47f3] (2+2/7) Accurately ripped
06 [5ad40438|e7b1c021] (2+2/7) Accurately ripped
07 [ee2d544f|4b5e0c62] (2+2/7) Accurately ripped
08 [75bfab39|c4c2633e] (2+2/7) Accurately ripped
09 [b8f41377|bae802dc] (2+2/7) Accurately ripped
10 [06b97e90|abcfcb12] (2+2/7) Accurately ripped
11 [e6a4815e|71828784] (2+2/7) Accurately ripped
Offsetted by -30:
01 [abb6f061] (3/7) Accurately ripped
02 [9da5419d] (3/7) Accurately ripped
03 [29cf85b8] (3/7) Accurately ripped
04 [e82675c7] (3/7) Accurately ripped
05 [dbd43b17] (3/7) Accurately ripped
06 [967a98ba] (3/7) Accurately ripped
07 [9b87ef43] (3/7) Accurately ripped
08 [140cea8c] (3/7) Accurately ripped
09 [0662b8d7] (3/7) Accurately ripped
10 [ac1a00c2] (3/7) Accurately ripped
11 [5eded1de] (3/7) Accurately ripped

Track Peak [ CRC32 ] [W/O NULL] [ LOG ]
– 100,0 [33BF076D] [9C7ABF88] CRC32
01 99,9 [FFA00679] [54EFE17A]
02 95,7 [FDC9C851] [D3DF738D]
03 100,0 [8FA7D5DC] [CA7765EB]
04 91,8 [EE6B590C] [5092D034]
05 55,7 [47CB6E35] [0CDD0ECC]
06 90,1 [A7E7F4F5] [9E1A85B5]
07 99,9 [0FFDDCB6] [9EAB5A37]
08 93,1 [8E0B8151] [945A4B64]
09 98,8 [692BD414] [670C0473]
10 98,9 [87682AB3] [80C88CA7]
11 100,0 [10230C76] [38AAF88F]

DR log
foobar2000 1.2 / Dynamic Range Meter 1.1.1
log date: 2017-07-12 05:18:44

––––––––––––––––––––––––––––––––––––––––
Analyzed: Morcheeba / Blood Like Lemonade
––––––––––––––––––––––––––––––––––––––––

DR Peak RMS Duration Track
––––––––––––––––––––––––––––––––––––––––
DR11 0.00 dB -12.69 dB 5:10 01-Crimson
DR9 -0.38 dB -11.57 dB 4:18 02-Even Though
DR11 0.00 dB -12.12 dB 4:51 03-Blood Like Lemonade
DR12 -0.74 dB -15.75 dB 2:40 04-Mandala
DR11 -5.07 dB -19.06 dB 3:27 05-I am the spring
DR11 -0.90 dB -13.95 dB 5:19 06-Recipe For Disaster
DR13 0.00 dB -16.44 dB 3:41 07-Easier Said Than Done
DR11 -0.62 dB -13.00 dB 4:18 08-Cut To The Chase
DR13 -0.10 dB -13.92 dB 5:09 09-Self Made Man
DR11 -0.09 dB -12.94 dB 6:19 10-Beat Of The Drum
DR10 0.00 dB -11.12 dB 3:26 11-Straight Ahead Master
––––––––––––––––––––––––––––––––––––––––

Number of tracks: 11
Official DR value: DR11

Samplerate: 44100 Hz
Channels: 2
Bits per sample: 16
Bitrate: 765 kbps
Codec: FLAC
================================================================================

Morcheeba - Blood Like Lemonade (2010) [Hidden Bonus Track Edition]

Morcheeba - Blood Like Lemonade (2010) [Hidden Bonus Track Edition]

All thanks to original releaser – bruk67

More interesting music in My Blog

Morcheeba – Big Calm (1998) [US Bonus Track Edition]

Morcheeba – Blood Like Lemonade (2010) [Hidden Bonus Track Edition] Download, Warez, DDL, Free, Full Album, Torrent, Legal.

Download