Montrose – Montrose (1973) {2005, HDCD, Audio Fidelity AFZ-028}

Download
Montrose - Montrose (1973) {2005, HDCD, Audio Fidelity AFZ-028}

Montrose – Montrose (1973) {2005, HDCD, Audio Fidelity AFZ-028}
EAC Rip | FLAC (Img) + Cue + Log ~ 220 Mb | MP3 CBR320 ~ 78 Mb
Scans (JPG, 300 dpi) ~ 19 Mb | RAR 5% Recovery
Hard Rock | Audio Fidelity #AFZ-028
Mastered for this CD by Steve Hoffman

The ’70s gave us a slew of classic hard rock albums – the likes of which may never be equaled – and though it hasn’t had the lasting influence of, say, Boston’s or Ted Nugent’s first albums, Montrose’s eponymous debut proved equally influential and important in its day. Released in 1973, the record also introduced a young Sammy Hagar to the world, but the explosive aggression of Ronnie Montrose’s biting guitar left no doubt as to why it was his name gracing the cover. A rock-solid rhythm section featuring drummer Denny Carmassi and bassist Bill Church certainly didn’t hurt, either, and unstoppable anthems such as "Rock the Nation" and "Good Rockin’ Tonight" would lay the ground rules for an entire generation of late-’70s California bands, most notably Van Halen. Admittedly, tracks like "Make It Last" and "I Don’t Want It" sound rather dated by today’s sonic standards (no thanks to their ultra-silly lyrics), but no amount of time can dim the sheer euphoria of "Bad Motor Scooter," the adolescent nastiness of "Rock Candy," and the simply gargantuan main riff of the phenomenal "Space Station #5." A welcome addition to any respectable ’70s hard rock collection.

~ Eduardo Rivadavia, All Music
Ronnie Montrose Official Website | Wiki | Discogs | All Music

***************

Montrose - Montrose (1973) {2005, HDCD, Audio Fidelity AFZ-028}

Track List:

01. Rock the Nation [3:03]
02. Bad Motor Scooter [3:43]
03. Space Station #5 [5:17]
04. I Don’t Want It [2:59]
05. Good Rockin’ Tonight [2:59]
06. Rock Candy [5:06]
07. One Thing on My Mind [3:41]
08. Make It Last [5:27]

Personnel:

Ronnie Montrose – guitar
Bill Church – bass
Denny Carmassi – drums
Sam Hagar – vocals

EAC Log
Exact Audio Copy V0.99 prebeta 4 from 23. January 2008

EAC extraction logfile from 6. December 2008, 11:56

Montrose / Montrose (Gold Disc)

Used drive : PLEXTOR DVDR PX-760A Adapter: 4 ID: 0

Read mode : Secure
Utilize accurate stream : Yes
Defeat audio cache : Yes
Make use of C2 pointers : No

Read offset correction : 30
Overread into Lead-In and Lead-Out : No
Fill up missing offset samples with silence : Yes
Delete leading and trailing silent blocks : No
Null samples used in CRC calculations : No
Used interface : Native Win32 interface for Win NT & 2000

Used output format : User Defined Encoder
Selected bitrate : 768 kBit/s
Quality : High
Add ID3 tag : No
Command line compressor : C:Program FilesExact Audio CopyFLACFLAC.EXE
Additional command line options : -6 -V -T "ARTIST=%a" -T "TITLE=%t" -T "ALBUM=%g" -T "DATE=%y" -T "TRACKNUMBER=%n" -T "GENRE=%m" -T "COMMENT=%e" %s -o %d

TOC of the extracted CD

Track | Start | Length | Start sector | End sector
––––––––––––––––––––––––––––-
1 | 0:00.00 | 3:03.10 | 0 | 13734
2 | 3:03.10 | 3:43.12 | 13735 | 30471
3 | 6:46.22 | 5:16.45 | 30472 | 54216
4 | 12:02.67 | 2:58.40 | 54217 | 67606
5 | 15:01.32 | 2:59.25 | 67607 | 81056
6 | 18:00.57 | 5:05.58 | 81057 | 103989
7 | 23:06.40 | 3:41.35 | 103990 | 120599
8 | 26:48.00 | 5:27.20 | 120600 | 145144

Range status and errors

Selected range

Filename C:MUSICMontrose – Montrose [AudioFidelity Gold AFZ-028]Montrose – Montrose (Gold Disc).wav

Peak level 100.0 %
Range quality 100.0 %
Copy CRC DFC3786E
Copy OK

No errors occurred

AccurateRip summary

Track 1 accurately ripped (confidence 6) [B1F77209]
Track 2 accurately ripped (confidence 6) [136973D9]
Track 3 accurately ripped (confidence 6) [2514743F]
Track 4 accurately ripped (confidence 6) [063894ED]
Track 5 accurately ripped (confidence 6) [A4959BD2]
Track 6 accurately ripped (confidence 6) [937C5045]
Track 7 accurately ripped (confidence 6) [CD061DE1]
Track 8 accurately ripped (confidence 6) [FBADCF03]

All tracks accurately ripped

End of status report

DR Log
foobar2000 1.2.6 / Dynamic Range Meter 1.1.1
log date: 2016-12-29 01:19:00

––––––––––––––––––––––––––––––––––––––––
Analyzed: Montrose / Montrose (Gold Disc)
––––––––––––––––––––––––––––––––––––––––

DR Peak RMS Duration Track
––––––––––––––––––––––––––––––––––––––––
DR12 -0.19 dB -14.27 dB 3:03 01-Rock the Nation
DR12 0.00 dB -13.54 dB 3:43 02-Bad Motor Scooter
DR11 0.00 dB -13.71 dB 5:17 03-Space Station #5
DR12 0.00 dB -13.40 dB 2:59 04-I Don’t Want It
DR11 -0.08 dB -13.59 dB 2:59 05-Good Rockin’ Tonight
DR12 0.00 dB -13.71 dB 5:06 06-Rock Candy
DR13 -0.10 dB -14.45 dB 3:41 07-One Thing on My Mind
DR11 -1.01 dB -14.35 dB 5:27 08-Make It Last
––––––––––––––––––––––––––––––––––––––––

Number of tracks: 8
Official DR value: DR12

Samplerate: 44100 Hz
Channels: 2
Bits per sample: 16
Bitrate: 905 kbps
Codec: FLAC
================================================================================

CUETools Log
[CUETools log; Date: 29.12.2016 1:16:35; Version: 2.1.5]
HDCD: peak extend: none, transient filter: some, gain: none
[CTDB TOCID: mXUR65nVZ_LCJLFaxHi2W7TA05Q-] found.
Track | CTDB Status
1 | (30/30) Accurately ripped
2 | (30/30) Accurately ripped
3 | (30/30) Accurately ripped
4 | (30/30) Accurately ripped
5 | (30/30) Accurately ripped
6 | (30/30) Accurately ripped
7 | (30/30) Accurately ripped
8 | (30/30) Accurately ripped
[AccurateRip ID: 00096977-003f76bf-5c078f08] found.
Track [ CRC | V2 ] Status
01 [b1f77209|8af831aa] (14+16/68) Accurately ripped
02 [136973d9|687ea318] (14+16/67) Accurately ripped
03 [2514743f|daca6437] (14+16/67) Accurately ripped
04 [063894ed|36a750ff] (14+16/67) Accurately ripped
05 [a4959bd2|325b47c0] (14+16/67) Accurately ripped
06 [937c5045|025794cf] (14+16/68) Accurately ripped
07 [cd061de1|45e20ada] (14+16/67) Accurately ripped
08 [fbadcf03|477b9387] (14+16/66) Accurately ripped
Offsetted by -578:
01 [1bf88074] (21/68) Accurately ripped
02 [a2a10d3d] (20/67) Accurately ripped
03 [b32dbda0] (20/67) Accurately ripped
04 [7be6d40b] (20/67) Accurately ripped
05 [5e2aa664] (20/67) Accurately ripped
06 [f1949360] (21/68) Accurately ripped
07 [04328dab] (20/67) Accurately ripped
08 [7b7ab474] (19/66) Accurately ripped
Offsetted by -18:
01 [1e0cead5] (00/68) No match (V2 was not tested)
02 [e857bf3d] (00/67) No match (V2 was not tested)
03 [b8ef09d1] (00/67) No match (V2 was not tested)
04 [b81a55d4] (00/67) No match (V2 was not tested)
05 [c36021de] (00/67) No match (V2 was not tested)
06 [5fa9311d] (00/68) No match (V2 was not tested)
07 [9ccc7a79] (00/67) No match (V2 was not tested)
08 [4a2ac4d0] (00/66) No match (V2 was not tested)

Track Peak [ CRC32 ] [W/O NULL] [ LOG ]
– 100,0 [A56BA9B5] [DFC3786E] W/O NULL
01 97,8 [79E398F8] [5F35D837]
02 100,0 [E4AEAC2C] [949A654C]
03 100,0 [74CC3995] [69B94E22]
04 100,0 [3CEAFD8D] [66F7EDD6]
05 99,0 [1790DAC5] [48847AFF]
06 100,0 [A308B176] [5D1079CA]
07 98,8 [D36F38B0] [E463BC76]
08 89,0 [3F705971] [3D3F0CDD]

Montrose - Montrose (1973) {2005, HDCD, Audio Fidelity AFZ-028}

Montrose - Montrose (1973) {2005, HDCD, Audio Fidelity AFZ-028}

All thanks go to the original ripper(s) …

> Visit my blog <

Download:

Montrose – Montrose (1973) {2005, HDCD, Audio Fidelity AFZ-028} Download, Warez, DDL, Free, Full Album, Torrent, Legal.

Tags:

  • montrose 1973 torrent
Download