Monster Magnet – Greatest Hits (2003) 2CDs

Download
Monster Magnet - Greatest Hits (2003) 2CDs

Monster Magnet – Greatest Hits (2003) 2CDs
EAC | FLAC | Tracks (Cue&Log) ~ 696 Mb | Mp3 (CBR320) ~ 233 Mb | Scans ~ 68 Mb | 01:37:06
Stoner Rock, Hard Rock | Label: A&M | # 0602498081952 | Data + 8 Video Clips (47 min) ~ 398 Mb

Greatest Hits is the title of New Jersey stoner rock band Monster Magnet’s 2003 greatest hits album released by A&M Records. The first disc contains Monster Magnet’s best known material, and contains tracks from 1991’s Spine of God (albeit re-recorded) up until their 2000 effort, God Says No, while the second disc contains the band’s music videos and a few b-sides and rarities.

During the early ’90s, a new crop of Black Sabbath-esque bands was being hailed by the media as the next big thing – perhaps even as a challenge to grunge. At the top of this list were Kyuss, Masters of Reality, and Monster Magnet. While all three did indeed carve niches for themselves and help launch the stoner metal movement of the late ’90s, none exactly battled Soundgarden and Nirvana for the top of the charts. Monster Magnet came the closest, however, due to a brief flirtation with the masses with 1998’s Powertrip and its rock radio hit, "Space Lord." But there was obviously more to the band led by the man with the nifty facial hair, Dave Wyndorf, as evidenced by the 2003 release Greatest Hits. Imagine the perfect soundtrack for a bunch of stoned/longhaired hippies staring at a projection-screen light show, and you’re not far off from such Monster Magnet favorites as "Negasonic Teenage Warhead," "Dopes to Infinity," "Space Lord," and "Powertrip." And following in the footsteps of the aforementioned Soundgarden and Kyuss, Monster Magnet also cover Black Sabbath’s "Into the Void," albeit in a completely overhauled way. Since their studio albums were known to be a bit uneven at times, the best way to experience Monster Magnet may be through a compilation, and Greatest Hits covers all the bases.

Review by Greg Prato, Allmusic.com

Monster Magnet - Greatest Hits (2003) 2CDs

Monster Magnet at Allmusic
Monster Magnet Website
Monster Magnet at Wiki

Tracklist:

CD1:

01. Tractor (03:27)
02. Medicine (03:53)
03. Dopes To Infinity (05:46)
04. Melt (05:45)
05. Spacelord (05:56)
06. Powertrip (03:32)
07. Atomic Clock (05:07)
08. Heads Explode (03:49)
09. Bummer (07:36)
10. Negasonic Teenage Warhead (04:28)
11. Dead Christmas (03:55)
12. Silver Future (04:59)
13. Black Balloon (03:06)
14. Crop Circle (05:33)
15. Kiss Of The Scorpion (04:02)
16. Space Lord (Intergalactic 7 Remix) (05:25)

CD2:

B-Sides:

01. Unsolid (02:51)
02. Big God (05:58)
03. Into The Void (08:05)
04. I Want More (03:51)

Videos:

Video1. SpaceLord (4:22)
Video2. Powertrip (3:32)
Video3. See You In Hell (4:02)
Video4. Heads Explode (Explicit Version) (3:51)
Video5. Twin Earth (5:00)
Video6. Face Down (4:12)
Video7. Negasonic Teenage Warhead (4:30)
Video8. Space Lord (Intergalactic 7 Mix) (5:24)

EAC log CD1
Exact Audio Copy V1.0 beta 4 from 7. December 2014

EAC extraction logfile from 1. December 2016, 21:44

Monster Magnet / Greatest Hits (Disc 1)

Used drive : TSSTcorpCDDVDW SH-224DB Adapter: 1 ID: 0

Read mode : Secure
Utilize accurate stream : Yes
Defeat audio cache : Yes
Make use of C2 pointers : No

Read offset correction : 6
Overread into Lead-In and Lead-Out : No
Fill up missing offset samples with silence : Yes
Delete leading and trailing silent blocks : No
Null samples used in CRC calculations : Yes
Used interface : Native Win32 interface for Win NT & 2000
Gap handling : Appended to previous track

Used output format : User Defined Encoder
Selected bitrate : 896 kBit/s
Quality : High
Add ID3 tag : No
Command line compressor : C:Program FilesExact Audio CopyFlacflac.exe
Additional command line options : -6 -V -T "ARTIST=%artist%" -T "TITLE=%title%" -T "ALBUM=%albumtitle%" -T "DATE=%year%" -T "TRACKNUMBER=%tracknr%" -T "GENRE=%genre%" -T "COMMENT=%comment%" %source% -o %dest%

TOC of the extracted CD

Track | Start | Length | Start sector | End sector
––––––––––––––––––––––––––––-
1 | 0:00.00 | 3:27.10 | 0 | 15534
2 | 3:27.10 | 3:53.00 | 15535 | 33009
3 | 7:20.10 | 5:46.00 | 33010 | 58959
4 | 13:06.10 | 5:45.00 | 58960 | 84834
5 | 18:51.10 | 5:56.00 | 84835 | 111534
6 | 24:47.10 | 3:32.00 | 111535 | 127434
7 | 28:19.10 | 5:07.00 | 127435 | 150459
8 | 33:26.10 | 3:49.00 | 150460 | 167634
9 | 37:15.10 | 7:36.00 | 167635 | 201834
10 | 44:51.10 | 4:28.00 | 201835 | 221934
11 | 49:19.10 | 3:55.00 | 221935 | 239559
12 | 53:14.10 | 4:59.00 | 239560 | 261984
13 | 58:13.10 | 3:06.00 | 261985 | 275934
14 | 61:19.10 | 5:33.00 | 275935 | 300909
15 | 66:52.10 | 4:02.00 | 300910 | 319059
16 | 70:54.10 | 5:25.38 | 319060 | 343472

Track 1

Filename C:New Folder1 – Tractor.wav

Pre-gap length 0:00:02.00

Peak level 98.8 %
Extraction speed 1.6 X
Track quality 99.9 %
Test CRC 2E419885
Copy CRC 2E419885
Accurately ripped (confidence 16) [E7B41DE0] (AR v2)
Copy OK

Track 2

Filename C:New Folder2 – Medicine.wav

Peak level 98.2 %
Extraction speed 2.0 X
Track quality 100.0 %
Test CRC 92D42624
Copy CRC 92D42624
Accurately ripped (confidence 16) [569D1733] (AR v2)
Copy OK

Track 3

Filename C:New Folder3 – Dopes To Infinity.wav

Peak level 97.7 %
Extraction speed 2.4 X
Track quality 100.0 %
Test CRC 1AA0B241
Copy CRC 1AA0B241
Accurately ripped (confidence 16) [8FE5EE69] (AR v2)
Copy OK

Track 4

Filename C:New Folder4 – Melt.wav

Peak level 99.8 %
Extraction speed 2.6 X
Track quality 100.0 %
Test CRC 686D38A9
Copy CRC 686D38A9
Accurately ripped (confidence 16) [A453EC28] (AR v2)
Copy OK

Track 5

Filename C:New Folder5 – Spacelord.wav

Peak level 98.8 %
Extraction speed 2.8 X
Track quality 100.0 %
Test CRC 52DF3106
Copy CRC 52DF3106
Accurately ripped (confidence 16) [DB6046B9] (AR v2)
Copy OK

Track 6

Filename C:New Folder6 – Powertrip.wav

Peak level 98.8 %
Extraction speed 2.8 X
Track quality 100.0 %
Test CRC 6BEC3A0B
Copy CRC 6BEC3A0B
Accurately ripped (confidence 16) [F69E8EA3] (AR v2)
Copy OK

Track 7

Filename C:New Folder7 – Atomic Clock.wav

Peak level 95.5 %
Extraction speed 3.0 X
Track quality 100.0 %
Test CRC F5FAD9E1
Copy CRC F5FAD9E1
Accurately ripped (confidence 16) [F0B41B68] (AR v2)
Copy OK

Track 8

Filename C:New Folder8 – Heads Explode.wav

Peak level 99.8 %
Extraction speed 3.0 X
Track quality 100.0 %
Test CRC 409B294C
Copy CRC 409B294C
Accurately ripped (confidence 16) [205C2BC8] (AR v2)
Copy OK

Track 9

Filename C:New Folder9 – Bummer.wav

Peak level 100.0 %
Extraction speed 3.5 X
Track quality 100.0 %
Test CRC 00B5ABFB
Copy CRC 00B5ABFB
Accurately ripped (confidence 16) [1A84ED0D] (AR v2)
Copy OK

Track 10

Filename C:New Folder10 – Negasonic Teenage Warhead.wav

Peak level 98.0 %
Extraction speed 3.4 X
Track quality 100.0 %
Test CRC A2A9ECB0
Copy CRC A2A9ECB0
Accurately ripped (confidence 16) [8DE0BCAF] (AR v2)
Copy OK

Track 11

Filename C:New Folder11 – Dead Christmas.wav

Peak level 97.7 %
Extraction speed 3.5 X
Track quality 100.0 %
Test CRC 3C35617B
Copy CRC 3C35617B
Accurately ripped (confidence 16) [4A5ABAE7] (AR v2)
Copy OK

Track 12

Filename C:New Folder12 – Silver Future.wav

Peak level 99.8 %
Extraction speed 3.7 X
Track quality 100.0 %
Test CRC 5F199512
Copy CRC 5F199512
Accurately ripped (confidence 16) [AE57EE57] (AR v2)
Copy OK

Track 13

Filename C:New Folder13 – Black Balloon.wav

Peak level 76.5 %
Extraction speed 3.6 X
Track quality 100.0 %
Test CRC 36138BFD
Copy CRC 36138BFD
Accurately ripped (confidence 16) [F58F5BC3] (AR v2)
Copy OK

Track 14

Filename C:New Folder14 – Crop Circle.wav

Peak level 98.8 %
Extraction speed 3.2 X
Track quality 99.9 %
Test CRC 35C38120
Copy CRC 35C38120
Accurately ripped (confidence 16) [10FC567B] (AR v2)
Copy OK

Track 15

Filename C:New Folder15 – Kiss Of The Scorpion.wav

Peak level 99.8 %
Extraction speed 2.9 X
Track quality 99.9 %
Test CRC 06FA1375
Copy CRC 06FA1375
Accurately ripped (confidence 16) [41C53BE9] (AR v2)
Copy OK

Track 16

Filename C:New Folder16 – Space Lord (Intergalactic 7 Remix).wav

Peak level 98.8 %
Extraction speed 4.2 X
Track quality 100.0 %
Test CRC E5F40D26
Copy CRC E5F40D26
Accurately ripped (confidence 15) [BCE5EE9D] (AR v2)
Copy OK

All tracks accurately ripped

No errors occurred

End of status report

–– CUETools DB Plugin V2.1.4

[CTDB TOCID: hLv4irJkPyZnq_E2XNlM_KUE654-] found
Submit result: hLv4irJkPyZnq_E2XNlM_KUE654- has been confirmed
Track | CTDB Status
1 | (51/52) Accurately ripped
2 | (52/52) Accurately ripped
3 | (50/52) Accurately ripped
4 | (52/52) Accurately ripped
5 | (50/52) Accurately ripped
6 | (49/52) Accurately ripped
7 | (51/52) Accurately ripped
8 | (51/52) Accurately ripped
9 | (50/52) Accurately ripped
10 | (50/52) Accurately ripped
11 | (51/52) Accurately ripped
12 | (52/52) Accurately ripped
13 | (51/52) Accurately ripped
14 | (50/52) Accurately ripped
15 | (51/52) Accurately ripped
16 | (48/52) Accurately ripped

==== Log checksum 98D9CBAAD7F510B706185E20651D5BA0DE6D3C6105499382D0F4C6D94A596145 ====

DR log CD1
foobar2000 1.2 / Dynamic Range Meter 1.1.1
log date: 2016-12-19 14:22:06

––––––––––––––––––––––––––––––––––––––––
Analyzed: Monster Magnet / Greatest Hits (Disc 1)
––––––––––––––––––––––––––––––––––––––––

DR Peak RMS Duration Track
––––––––––––––––––––––––––––––––––––––––
DR7 -0.10 dB -8.22 dB 3:27 01-Tractor
DR5 -0.16 dB -7.40 dB 3:53 02-Medicine
DR8 -0.20 dB -9.68 dB 5:46 03-Dopes To Infinity
DR7 -0.01 dB -8.62 dB 5:45 04-Melt
DR7 -0.10 dB -10.20 dB 5:56 05-Spacelord
DR7 -0.10 dB -8.60 dB 3:32 06-Powertrip
DR7 -0.40 dB -8.79 dB 5:07 07-Atomic Clock
DR5 -0.01 dB -7.02 dB 3:49 08-Heads Explode
DR7 0.00 dB -7.95 dB 7:36 09-Bummer
DR9 -0.17 dB -11.02 dB 4:28 10-Negasonic Teenage Warhead
DR9 -0.20 dB -10.73 dB 3:55 11-Dead Christmas
DR7 -0.01 dB -8.75 dB 4:59 12-Silver Future
DR12 -2.33 dB -16.12 dB 3:06 13-Black Balloon
DR8 -0.10 dB -9.47 dB 5:33 14-Crop Circle
DR7 -0.01 dB -8.50 dB 4:02 15-Kiss Of The Scorpion
DR5 -0.10 dB -6.92 dB 5:26 16-Space Lord (Intergalactic 7 Remix)
––––––––––––––––––––––––––––––––––––––––

Number of tracks: 16
Official DR value: DR7

Samplerate: 44100 Hz
Channels: 2
Bits per sample: 16
Bitrate: 956 kbps
Codec: FLAC
================================================================================

EAC log CD2
Exact Audio Copy V1.0 beta 4 from 7. December 2014

EAC extraction logfile from 2. December 2016, 7:24

Monster Magnet / Greatest Hits (Disc 2)

Used drive : TSSTcorpCDDVDW SH-224DB Adapter: 1 ID: 0

Read mode : Secure
Utilize accurate stream : Yes
Defeat audio cache : Yes
Make use of C2 pointers : No

Read offset correction : 6
Overread into Lead-In and Lead-Out : No
Fill up missing offset samples with silence : Yes
Delete leading and trailing silent blocks : No
Null samples used in CRC calculations : Yes
Used interface : Native Win32 interface for Win NT & 2000
Gap handling : Appended to previous track

Used output format : User Defined Encoder
Selected bitrate : 896 kBit/s
Quality : High
Add ID3 tag : No
Command line compressor : C:Program FilesExact Audio CopyFlacflac.exe
Additional command line options : -6 -V -T "ARTIST=%artist%" -T "TITLE=%title%" -T "ALBUM=%albumtitle%" -T "DATE=%year%" -T "TRACKNUMBER=%tracknr%" -T "GENRE=%genre%" -T "COMMENT=%comment%" %source% -o %dest%

TOC of the extracted CD

Track | Start | Length | Start sector | End sector
––––––––––––––––––––––––––––-
1 | 0:00.00 | 2:51.08 | 0 | 12832
2 | 2:51.08 | 5:58.42 | 12833 | 39724
3 | 8:49.50 | 8:05.33 | 39725 | 76132
4 | 16:55.08 | 3:51.22 | 76133 | 93479
5 | 23:18.30 | 47:01.62 | 104880 | 316516

Track 1

Filename C:New Folder1 – Unsolid.wav

Pre-gap length 0:00:02.00

Peak level 96.2 %
Extraction speed 1.8 X
Track quality 100.0 %
Test CRC 06CD91A1
Copy CRC 06CD91A1
Accurately ripped (confidence 3) [728E67B6] (AR v2)
Copy OK

Track 2

Filename C:New Folder2 – Big God.wav

Peak level 100.0 %
Extraction speed 2.0 X
Track quality 99.9 %
Test CRC 9622A7BD
Copy CRC 9622A7BD
Accurately ripped (confidence 3) [7176A9C0] (AR v2)
Copy OK

Track 3

Filename C:New Folder3 – Into The Void.wav

Peak level 88.1 %
Extraction speed 2.5 X
Track quality 100.0 %
Test CRC 37D89D29
Copy CRC 37D89D29
Accurately ripped (confidence 3) [2A639B32] (AR v2)
Copy OK

Track 4

Filename C:New Folder4 – I Want More.wav

Peak level 89.9 %
Extraction speed 2.6 X
Track quality 100.0 %
Test CRC 9C46AD6C
Copy CRC 9C46AD6C
Accurately ripped (confidence 3) [D3A16999] (AR v2)
Copy OK

All tracks accurately ripped

No errors occurred

End of status report

–– CUETools DB Plugin V2.1.4

[CTDB TOCID: Gu5mKwYW77LpoBqwZRvFhwSzCCA-] found
Submit result: Gu5mKwYW77LpoBqwZRvFhwSzCCA- has been confirmed
Track | CTDB Status
1 | (47/47) Accurately ripped
2 | (46/47) Accurately ripped
3 | (46/47) Accurately ripped
4 | (47/47) Accurately ripped

==== Log checksum 5808F8AFA97E3E39C74768EE3737C23803B34273F5BC671E4554C6E8D4139838 ====

DR log CD2
foobar2000 1.2 / Dynamic Range Meter 1.1.1
log date: 2016-12-19 14:22:16

––––––––––––––––––––––––––––––––––––––––
Analyzed: Monster Magnet / Greatest Hits (Disc 2)
––––––––––––––––––––––––––––––––––––––––

DR Peak RMS Duration Track
––––––––––––––––––––––––––––––––––––––––
DR9 -0.34 dB -11.86 dB 2:51 01-Unsolid
DR12 0.00 dB -14.37 dB 5:59 02-Big God
DR5 -1.10 dB -10.64 dB 8:05 03-Into The Void
DR6 -0.92 dB -7.54 dB 3:51 04-I Want More
––––––––––––––––––––––––––––––––––––––––

Number of tracks: 4
Official DR value: DR8

Samplerate: 44100 Hz
Channels: 2
Bits per sample: 16
Bitrate: 1004 kbps
Codec: FLAC
================================================================================

Monster Magnet - Greatest Hits (2003) 2CDs

Monster Magnet - Greatest Hits (2003) 2CDs

All thanks to original releaser – alekow

More interesting music in My Blog

Monster Magnet – Greatest Hits (2003) 2CDs Download, Warez, DDL, Free, Full Album, Torrent, Legal.

Download