Mono Men – Stop Draggin' Me Down (1990) {Estrus} | ViralVideoPk

Daily Dose of Free Downloads

Mono Men – Stop Draggin' Me Down (1990) {Estrus}

Download

Mono Men - Stop Draggin' Me Down (1990) {Estrus}

Mono Men – Stop Draggin’ Me Down (1990) {Estrus}
EAC Rip | FLAC with CUE and log | scans | 251 mb
MP3 CBR 320kbps | RAR | 97 mb
Genre: garage rock

Stop Draggin’ Me Down is the 1990 debut album from Washington State garage rock band The Mono Men. This was released on Estrus Records, a label founded by guitarist Dave Crider and the CD features three bonus tracks plus a temporary break involving opening up a can of beer for your refreshment.

Mono Men - Stop Draggin' Me Down (1990) {Estrus}

1. Stop Draggin’ Me Down (3:01)
2. Right Now (2:47)
3. Boss (1:50)
4. Ain’t No Friend Of Mine (2:43)
5. No Way Back (2:40)
6. I Don’t Care (3:16)
7. (Beer Break Intermission) (0:14)
8. Dead End (3:47)
9. That’s Her (2:54)
10. Girl (2:21)
11. Stay Awake (3:32)
12. Fate (2:33)
13. Reptile (2:01)
14. Daylight (Bonus Track) (3:22)
15. Pete’s Pango (Bonus Track) (2:04)
16. Burning Bush (Bonus Track) (2:45)

Mono Men - Stop Draggin' Me Down (1990) {Estrus}

Dave Crider-guitar, vocals
Marx Wright-guitar, vocals
Ledge Morrisette-bass
Aaron Roeder-drums

Josie Cat-organ (track 13)

Produced by Richard Head
Engineered by Conrad Uno
Recorded and mixed at Egg Studios, Seattle

Mono Men - Stop Draggin' Me Down (1990) {Estrus}
EAC Log
Exact Audio Copy V1.1 from 23. June 2015

EAC extraction logfile from 14. December 2016, 9:20

Mono Men / Stop Draggin’ Me Down

Used drive : TEAC DVD-ROM DV-28SW Adapter: 1 ID: 0

Read mode : Secure
Utilize accurate stream : Yes
Defeat audio cache : Yes
Make use of C2 pointers : No

Read offset correction : 6
Overread into Lead-In and Lead-Out : No
Fill up missing offset samples with silence : Yes
Delete leading and trailing silent blocks : No
Null samples used in CRC calculations : Yes
Used interface : Native Win32 interface for Win NT & 2000
Gap handling : Appended to previous track

Used output format : Internal WAV Routines
Sample format : 44.100 Hz; 16 Bit; Stereo

TOC of the extracted CD

Track | Start | Length | Start sector | End sector
––––––––––––––––––––––––––––-
1 | 0:00.00 | 3:01.45 | 0 | 13619
2 | 3:01.45 | 2:47.30 | 13620 | 26174
3 | 5:49.00 | 1:50.62 | 26175 | 34486
4 | 7:39.62 | 2:43.03 | 34487 | 46714
5 | 10:22.65 | 2:40.02 | 46715 | 58716
6 | 13:02.67 | 3:16.73 | 58717 | 73489
7 | 16:19.65 | 0:14.15 | 73490 | 74554
8 | 16:34.05 | 3:47.02 | 74555 | 91581
9 | 20:21.07 | 2:54.55 | 91582 | 104686
10 | 23:15.62 | 2:21.28 | 104687 | 115289
11 | 25:37.15 | 3:32.02 | 115290 | 131191
12 | 29:09.17 | 2:33.55 | 131192 | 142721
13 | 31:42.72 | 2:01.70 | 142722 | 151866
14 | 33:44.67 | 3:22.28 | 151867 | 167044
15 | 37:07.20 | 2:04.50 | 167045 | 176394
16 | 39:11.70 | 2:45.50 | 176395 | 188819

Track 1

Filename C:My DocumentsMy FLACMono Men – Stop Draggin’ Me Down (1990) [FLAC] {Estrus}1 – Stop Draggin’ Me Down.wav

Pre-gap length 0:00:02.00

Peak level 83.5 %
Extraction speed 2.1 X
Track quality 99.9 %
Test CRC 119BB1FE
Copy CRC 119BB1FE
Accurately ripped (confidence 5) [9D8E324F] (AR v2)
Copy OK

Track 2

Filename C:My DocumentsMy FLACMono Men – Stop Draggin’ Me Down (1990) [FLAC] {Estrus}2 – Right Now.wav

Peak level 95.9 %
Extraction speed 2.8 X
Track quality 100.0 %
Test CRC 277A7357
Copy CRC 277A7357
Accurately ripped (confidence 5) [C89FEF31] (AR v2)
Copy OK

Track 3

Filename C:My DocumentsMy FLACMono Men – Stop Draggin’ Me Down (1990) [FLAC] {Estrus}3 – Boss.wav

Peak level 92.9 %
Extraction speed 2.7 X
Track quality 100.0 %
Test CRC 0B72A050
Copy CRC 0B72A050
Accurately ripped (confidence 5) [86744356] (AR v2)
Copy OK

Track 4

Filename C:My DocumentsMy FLACMono Men – Stop Draggin’ Me Down (1990) [FLAC] {Estrus}4 – Ain’t No Friend Of Mine.wav

Peak level 89.4 %
Extraction speed 3.1 X
Track quality 100.0 %
Test CRC EBD5AB74
Copy CRC EBD5AB74
Accurately ripped (confidence 5) [24A01DE5] (AR v2)
Copy OK

Track 5

Filename C:My DocumentsMy FLACMono Men – Stop Draggin’ Me Down (1990) [FLAC] {Estrus}5 – No Way Back.wav

Peak level 70.5 %
Extraction speed 2.6 X
Track quality 99.9 %
Test CRC 779D1A9E
Copy CRC 779D1A9E
Accurately ripped (confidence 5) [C78FCDD3] (AR v2)
Copy OK

Track 6

Filename C:My DocumentsMy FLACMono Men – Stop Draggin’ Me Down (1990) [FLAC] {Estrus}6 – I Don’t Care.wav

Peak level 79.6 %
Extraction speed 3.5 X
Track quality 100.0 %
Test CRC EB35042C
Copy CRC EB35042C
Accurately ripped (confidence 5) [8FACD1C5] (AR v2)
Copy OK

Track 7

Filename C:My DocumentsMy FLACMono Men – Stop Draggin’ Me Down (1990) [FLAC] {Estrus}7 – (Beer Break Intermission).wav

Peak level 100.0 %
Extraction speed 1.1 X
Track quality 100.0 %
Test CRC 20384ADF
Copy CRC 20384ADF
Accurately ripped (confidence 5) [A247CBB2] (AR v2)
Copy OK

Track 8

Filename C:My DocumentsMy FLACMono Men – Stop Draggin’ Me Down (1990) [FLAC] {Estrus}8 – Dead End.wav

Peak level 68.0 %
Extraction speed 3.8 X
Track quality 100.0 %
Test CRC AD886151
Copy CRC AD886151
Accurately ripped (confidence 5) [FEAEACD4] (AR v2)
Copy OK

Track 9

Filename C:My DocumentsMy FLACMono Men – Stop Draggin’ Me Down (1990) [FLAC] {Estrus}9 – That’s Her.wav

Peak level 87.7 %
Extraction speed 3.8 X
Track quality 100.0 %
Test CRC 451E7C14
Copy CRC 451E7C14
Accurately ripped (confidence 5) [F667CFDF] (AR v2)
Copy OK

Track 10

Filename C:My DocumentsMy FLACMono Men – Stop Draggin’ Me Down (1990) [FLAC] {Estrus}10 – Girl.wav

Peak level 99.9 %
Extraction speed 3.7 X
Track quality 100.0 %
Test CRC FAEAB9F2
Copy CRC FAEAB9F2
Accurately ripped (confidence 5) [CAE5A087] (AR v2)
Copy OK

Track 11

Filename C:My DocumentsMy FLACMono Men – Stop Draggin’ Me Down (1990) [FLAC] {Estrus}11 – Stay Awake.wav

Peak level 89.0 %
Extraction speed 4.2 X
Track quality 100.0 %
Test CRC 8BE04F45
Copy CRC 8BE04F45
Accurately ripped (confidence 5) [FD992033] (AR v2)
Copy OK

Track 12

Filename C:My DocumentsMy FLACMono Men – Stop Draggin’ Me Down (1990) [FLAC] {Estrus}12 – Fate.wav

Peak level 100.0 %
Extraction speed 4.0 X
Track quality 100.0 %
Test CRC B5A30AFE
Copy CRC B5A30AFE
Accurately ripped (confidence 5) [DABDB996] (AR v2)
Copy OK

Track 13

Filename C:My DocumentsMy FLACMono Men – Stop Draggin’ Me Down (1990) [FLAC] {Estrus}13 – Reptile.wav

Peak level 87.3 %
Extraction speed 4.0 X
Track quality 100.0 %
Test CRC 36DEADAA
Copy CRC 36DEADAA
Accurately ripped (confidence 5) [6605E5D6] (AR v2)
Copy OK

Track 14

Filename C:My DocumentsMy FLACMono Men – Stop Draggin’ Me Down (1990) [FLAC] {Estrus}14 – Daylight.wav

Peak level 93.4 %
Extraction speed 4.5 X
Track quality 100.0 %
Test CRC 44BB45DE
Copy CRC 44BB45DE
Accurately ripped (confidence 5) [27052053] (AR v2)
Copy OK

Track 15

Filename C:My DocumentsMy FLACMono Men – Stop Draggin’ Me Down (1990) [FLAC] {Estrus}15 – Pete’s Pango.wav

Peak level 71.8 %
Extraction speed 4.2 X
Track quality 100.0 %
Test CRC E922601B
Copy CRC E922601B
Accurately ripped (confidence 5) [DADE0E60] (AR v2)
Copy OK

Track 16

Filename C:My DocumentsMy FLACMono Men – Stop Draggin’ Me Down (1990) [FLAC] {Estrus}16 – Burning Bush.wav

Peak level 70.5 %
Extraction speed 3.6 X
Track quality 99.9 %
Test CRC 931F9980
Copy CRC 931F9980
Accurately ripped (confidence 5) [10973B48] (AR v2)
Copy OK

All tracks accurately ripped

No errors occurred

End of status report

–– CUETools DB Plugin V2.1.6

[CTDB TOCID: 2hEA.hcbMei4FYjvg9N_5Sopr78-] found
Submit result: 2hEA.hcbMei4FYjvg9N_5Sopr78- has been confirmed
Track | CTDB Status
1 | (7/7) Accurately ripped
2 | (7/7) Accurately ripped
3 | (7/7) Accurately ripped
4 | (7/7) Accurately ripped
5 | (7/7) Accurately ripped
6 | (7/7) Accurately ripped
7 | (7/7) Accurately ripped
8 | (7/7) Accurately ripped
9 | (7/7) Accurately ripped
10 | (7/7) Accurately ripped
11 | (7/7) Accurately ripped
12 | (7/7) Accurately ripped
13 | (7/7) Accurately ripped
14 | (7/7) Accurately ripped
15 | (7/7) Accurately ripped
16 | (7/7) Accurately ripped

==== Log checksum 4C969A3C780ADB1BFDE5AE851AAA53E429F35E4D837C4E2573C019FC46ED60F2 ====

Mono Men - Stop Draggin' Me Down (1990) {Estrus}

Mono Men – Stop Draggin' Me Down (1990) {Estrus} Download, Warez, DDL, Free, Full Album, Torrent, Legal.

Download


  • Recent Posts

  • Recent Tags