Monk's Music Trio – Monk On Mondays (2007)

Download
Monk's Music Trio - Monk On Mondays (2007)

Monk’s Music Trio – Monk On Mondays (2007)
EAC Rip | FLAC with CUE and log | scans | 480 mb
MP3 CBR 320kbps | RAR | 177 mb
Genre: jazz

Monk On Mondays is the 2007 album by The Monk’s Music Trio, consisting of Chuck Bernstein, Si Perkoff and Sam Bevan, all of whom had a hand in producing this. It was released through Bernstein’s own CMB label.

Monk's Music Trio - Monk On Mondays (2007)

01. Let’s Call This
02. Bye-Ya
03. Brake’s Sake
04. Ruby My Dear
05. Evidence
06. Locomotive
07. Well You Needn’t
08. Something In Blue
09. Hornin’ In
10. Green Chimneys
11. Light Blue
12. Criss Cross
13. Straight No Chaser

Chuck Bernstein-drums
Si Perkoff-piano
Sam Bevan-bass

Produced by Chuck Bernstein, Si Perkoff & Sam Bevan
Engineered, mixed & mastered by Chris Seifert
Recorded 8-11 August, 2005 at Si Perkoff’s home, Mill Valley, CA

EAC Log
EAC extraction logfile from 26. June 2017, 19:10 for CD
Monk’s Music Trio / Monk On Mondays

Used drive : TSSTcorpDVD+-RW TS-H653B Adapter: 2 ID: 0
Read mode : Secure with NO C2, accurate stream, disable cache
Read offset correction : 6
Overread into Lead-In and Lead-Out : No

Used output format : Internal WAV Routines
44.100 Hz; 16 Bit; Stereo

Other options :
Fill up missing offset samples with silence : Yes
Delete leading and trailing silent blocks : No
Native Win32 interface for Win NT & 2000

Track 1
Filename C:Documents and SettingscuntfistDesktopFLAC’s14Monk’s Music Trio – Monk On Mondays (2007) [FLAC]1 – Let’s Call This.wav

Pre-gap length 0:00:02.00

Peak level 98.8 %
Track quality 100.0 %
Test CRC 04755124
Copy CRC 04755124
Copy OK

Track 2
Filename C:Documents and SettingscuntfistDesktopFLAC’s14Monk’s Music Trio – Monk On Mondays (2007) [FLAC]2 – Bye-Ya.wav

Pre-gap length 0:00:03.00

Peak level 98.8 %
Track quality 99.9 %
Test CRC A296D23C
Copy CRC A296D23C
Copy OK

Track 3
Filename C:Documents and SettingscuntfistDesktopFLAC’s14Monk’s Music Trio – Monk On Mondays (2007) [FLAC]3 – Brake’s Sake.wav

Pre-gap length 0:00:03.00

Peak level 98.8 %
Track quality 100.0 %
Test CRC 5E18950A
Copy CRC 5E18950A
Copy OK

Track 4
Filename C:Documents and SettingscuntfistDesktopFLAC’s14Monk’s Music Trio – Monk On Mondays (2007) [FLAC]4 – Ruby My Dear.wav

Pre-gap length 0:00:03.00

Peak level 98.8 %
Track quality 100.0 %
Test CRC 9B7AAE86
Copy CRC 9B7AAE86
Copy OK

Track 5
Filename C:Documents and SettingscuntfistDesktopFLAC’s14Monk’s Music Trio – Monk On Mondays (2007) [FLAC]5 – Evidence.wav

Pre-gap length 0:00:01.00

Peak level 98.8 %
Track quality 100.0 %
Test CRC 3D262F82
Copy CRC 3D262F82
Copy OK

Track 6
Filename C:Documents and SettingscuntfistDesktopFLAC’s14Monk’s Music Trio – Monk On Mondays (2007) [FLAC]6 – Locomotive.wav

Pre-gap length 0:00:03.00

Peak level 98.8 %
Track quality 100.0 %
Test CRC EB233A1D
Copy CRC EB233A1D
Copy OK

Track 7
Filename C:Documents and SettingscuntfistDesktopFLAC’s14Monk’s Music Trio – Monk On Mondays (2007) [FLAC]7 – Well You Needn’t.wav

Pre-gap length 0:00:02.00

Peak level 98.8 %
Track quality 99.9 %
Test CRC EFD471C5
Copy CRC EFD471C5
Copy OK

Track 8
Filename C:Documents and SettingscuntfistDesktopFLAC’s14Monk’s Music Trio – Monk On Mondays (2007) [FLAC]8 – Something In Blue.wav

Pre-gap length 0:00:03.00

Peak level 98.8 %
Track quality 100.0 %
Test CRC D1168827
Copy CRC D1168827
Copy OK

Track 9
Filename C:Documents and SettingscuntfistDesktopFLAC’s14Monk’s Music Trio – Monk On Mondays (2007) [FLAC]9 – Hornin’ In.wav

Pre-gap length 0:00:02.00

Peak level 98.8 %
Track quality 100.0 %
Test CRC EB1D761E
Copy CRC EB1D761E
Copy OK

Track 10
Filename C:Documents and SettingscuntfistDesktopFLAC’s14Monk’s Music Trio – Monk On Mondays (2007) [FLAC]10 – Green Chimneys.wav

Pre-gap length 0:00:03.00

Peak level 98.9 %
Track quality 100.0 %
Test CRC 0125A08C
Copy CRC 0125A08C
Copy OK

Track 11
Filename C:Documents and SettingscuntfistDesktopFLAC’s14Monk’s Music Trio – Monk On Mondays (2007) [FLAC]11 – Light Blue.wav

Pre-gap length 0:00:03.00

Peak level 98.8 %
Track quality 100.0 %
Test CRC B487C000
Copy CRC B487C000
Copy OK

Track 12
Filename C:Documents and SettingscuntfistDesktopFLAC’s14Monk’s Music Trio – Monk On Mondays (2007) [FLAC]12 – Criss Cross.wav

Pre-gap length 0:00:03.00

Peak level 98.8 %
Track quality 100.0 %
Test CRC 46F2172F
Copy CRC 46F2172F
Copy OK

Track 13
Filename C:Documents and SettingscuntfistDesktopFLAC’s14Monk’s Music Trio – Monk On Mondays (2007) [FLAC]13 – Straight No Chaser.wav

Pre-gap length 0:00:03.00

Peak level 98.8 %
Track quality 100.0 %
Test CRC 466A317D
Copy CRC 466A317D
Copy OK

No errors occured

End of status report

Monk's Music Trio - Monk On Mondays (2007)

Monk's Music Trio – Monk On Mondays (2007) Download, Warez, DDL, Free, Full Album, Torrent, Legal.

Download