Monica – All Eyez on Me (2002) {J Records} | ViralVideoPk

Daily Dose of Free Downloads

Monica – All Eyez on Me (2002) {J Records}

Download

Monica - All Eyez on Me (2002) {J Records}

Monica – All Eyez on Me (2002)
EAC Rip | FLAC with CUE and log | 382 mb
MP3 CBR 320kbps | RAR | 126 mb
R&B, Soul, Hip-Hop

All Eyez on Me is the third studio album by American recording artist Monica. Named after its same-titled lead single, it marked the singer’s first record under Clive Davis’ J Records roster and was first released on October 21, 2002 in Japan. The tracks on the album are a mixture of uptempos and ballads, which are basically inspired by contemporary R&B and soul genres; it also features elements of hip hop, dance-pop and gospel music, crafted by musicians suchs as Dallas Austin, Bryan Michael Cox, Jermaine Dupri, Rodney "Darkchild" Jerkins, and Soulshock & Karlin.

TRACKLIST
01. I’m Back
02. All Eyez on Me
03. U Should’ve Known
04. Too Hood (feat. Jermaine Dupri)
05. I Wrote This Song
06. U Deserve
07. Breaks My Heart
08. Ain’t Gonna Cry No More
09. If U Were the Girl
10. What Hurts the Most
11. Searchin’
12. Just Another Girl
13. What My Heart Says

EAC Log
Exact Audio Copy V1.1 from 23. June 2015

EAC extraction logfile from 29. May 2016, 23:40

Monica / All Eyez On Me

Used drive : PIONEER BD-RW BDR-UD03D Adapter: 1 ID: 0

Read mode : Secure
Utilize accurate stream : Yes
Defeat audio cache : Yes
Make use of C2 pointers : No

Read offset correction : 667
Overread into Lead-In and Lead-Out : No
Fill up missing offset samples with silence : Yes
Delete leading and trailing silent blocks : No
Null samples used in CRC calculations : Yes
Used interface : Native Win32 interface for Win NT & 2000
Gap handling : Appended to previous track

Used output format : User Defined Encoder
Selected bitrate : 1024 kBit/s
Quality : High
Add ID3 tag : No
Command line compressor : C:Program Files (x86)Exact Audio CopyFlacflac.exe
Additional command line options : -8 -e -V -T "ARTIST=%artist%" -T "TITLE=%title%" -T "ALBUM=%albumtitle%" -T "DATE=%year%" -T "TRACKNUMBER=%tracknr%" -T "GENRE=%genre%" -T "PERFORMER=%albuminterpret%" -T "COMPOSER=%composer%" %haslyrics%–tag-from-file=LYRICS="%lyricsfile%"%haslyrics% -T "ALBUMARTIST=%albumartist%" -T "DISCNUMBER=%cdnumber%" -T "TOTALDISCS=%totalcds%" -T "TOTALTRACKS=%numtracks%" -T "COMMENT=%comment%" %source% -o %dest%

TOC of the extracted CD

Track | Start | Length | Start sector | End sector
––––––––––––––––––––––––––––-
1 | 0:00.00 | 3:35.20 | 0 | 16144
2 | 3:35.20 | 4:00.00 | 16145 | 34144
3 | 7:35.20 | 4:18.15 | 34145 | 53509
4 | 11:53.35 | 4:04.30 | 53510 | 71839
5 | 15:57.65 | 3:48.25 | 71840 | 88964
6 | 19:46.15 | 4:24.25 | 88965 | 108789
7 | 24:10.40 | 4:27.35 | 108790 | 128849
8 | 28:38.00 | 4:10.42 | 128850 | 147641
9 | 32:48.42 | 3:52.08 | 147642 | 165049
10 | 36:40.50 | 4:44.00 | 165050 | 186349
11 | 41:24.50 | 4:30.00 | 186350 | 206599
12 | 45:54.50 | 3:24.57 | 206600 | 221956
13 | 49:19.32 | 4:01.43 | 221957 | 240074

Track 1

Filename E:MonicaMonica-All Eyez On Me-CD-FLAC-2002 [BVCP-27026]1 I’m Back.wav

Pre-gap length 0:00:02.00

Peak level 100.0 %
Extraction speed 2.7 X
Track quality 100.0 %
Test CRC 28E0AA3A
Copy CRC 28E0AA3A
Accurately ripped (confidence 3) [36744F49] (AR v2)
Copy OK

Track 2

Filename E:MonicaMonica-All Eyez On Me-CD-FLAC-2002 [BVCP-27026]2 All Eyez On Me.wav

Pre-gap length 0:00:00.66

Peak level 100.0 %
Extraction speed 2.7 X
Track quality 99.9 %
Test CRC 2D04391E
Copy CRC 2D04391E
Accurately ripped (confidence 3) [9CE44DAD] (AR v2)
Copy OK

Track 3

Filename E:MonicaMonica-All Eyez On Me-CD-FLAC-2002 [BVCP-27026]3 U Should’ve Known.wav

Pre-gap length 0:00:01.37

Peak level 100.0 %
Extraction speed 3.4 X
Track quality 100.0 %
Test CRC E1B0DAB2
Copy CRC E1B0DAB2
Accurately ripped (confidence 3) [D819449F] (AR v2)
Copy OK

Track 4

Filename E:MonicaMonica-All Eyez On Me-CD-FLAC-2002 [BVCP-27026]4 Too Hood.wav

Pre-gap length 0:00:00.97

Peak level 100.0 %
Extraction speed 3.5 X
Track quality 100.0 %
Test CRC 6EFDC108
Copy CRC 6EFDC108
Accurately ripped (confidence 3) [CC5B5676] (AR v2)
Copy OK

Track 5

Filename E:MonicaMonica-All Eyez On Me-CD-FLAC-2002 [BVCP-27026]5 I Wrote This Song.wav

Pre-gap length 0:00:01.30

Peak level 100.0 %
Extraction speed 3.7 X
Track quality 100.0 %
Test CRC 7345E712
Copy CRC 7345E712
Accurately ripped (confidence 3) [948CC15F] (AR v2)
Copy OK

Track 6

Filename E:MonicaMonica-All Eyez On Me-CD-FLAC-2002 [BVCP-27026]6 U Deserve.wav

Pre-gap length 0:00:01.00

Peak level 100.0 %
Extraction speed 4.0 X
Track quality 100.0 %
Test CRC 15FF9530
Copy CRC 15FF9530
Accurately ripped (confidence 3) [2013DECB] (AR v2)
Copy OK

Track 7

Filename E:MonicaMonica-All Eyez On Me-CD-FLAC-2002 [BVCP-27026]7 Breaks My Heart.wav

Pre-gap length 0:00:01.44

Peak level 100.0 %
Extraction speed 4.3 X
Track quality 100.0 %
Test CRC A6E6C990
Copy CRC A6E6C990
Accurately ripped (confidence 3) [390E558D] (AR v2)
Copy OK

Track 8

Filename E:MonicaMonica-All Eyez On Me-CD-FLAC-2002 [BVCP-27026]8 Ain’t Gonna Cry No More.wav

Pre-gap length 0:00:00.70

Peak level 100.0 %
Extraction speed 4.4 X
Track quality 100.0 %
Test CRC D35F5CB9
Copy CRC D35F5CB9
Accurately ripped (confidence 3) [4A64651E] (AR v2)
Copy OK

Track 9

Filename E:MonicaMonica-All Eyez On Me-CD-FLAC-2002 [BVCP-27026]9 If U Were The Girl.wav

Pre-gap length 0:00:00.96

Peak level 100.0 %
Extraction speed 4.5 X
Track quality 100.0 %
Test CRC D0C789E5
Copy CRC D0C789E5
Accurately ripped (confidence 3) [93603E83] (AR v2)
Copy OK

Track 10

Filename E:MonicaMonica-All Eyez On Me-CD-FLAC-2002 [BVCP-27026]10 What Hurts The Most.wav

Pre-gap length 0:00:01.13

Peak level 100.0 %
Extraction speed 4.8 X
Track quality 100.0 %
Test CRC 5865BEB2
Copy CRC 5865BEB2
Accurately ripped (confidence 3) [8E126C93] (AR v2)
Copy OK

Track 11

Filename E:MonicaMonica-All Eyez On Me-CD-FLAC-2002 [BVCP-27026]11 Searchin’.wav

Pre-gap length 0:00:01.33

Peak level 100.0 %
Extraction speed 4.9 X
Track quality 100.0 %
Test CRC 20A66D50
Copy CRC 20A66D50
Accurately ripped (confidence 3) [5D8C299D] (AR v2)
Copy OK

Track 12

Filename E:MonicaMonica-All Eyez On Me-CD-FLAC-2002 [BVCP-27026]12 Just Another Girl.wav

Pre-gap length 0:00:02.60

Peak level 89.1 %
Extraction speed 4.9 X
Track quality 100.0 %
Test CRC 26BAB24A
Copy CRC 26BAB24A
Accurately ripped (confidence 4) [3AC7294B] (AR v2)
Copy OK

Track 13

Filename E:MonicaMonica-All Eyez On Me-CD-FLAC-2002 [BVCP-27026]13 What My Heart Says.wav

Pre-gap length 0:00:02.13

Peak level 89.1 %
Extraction speed 5.1 X
Track quality 100.0 %
Test CRC E0D8BE9A
Copy CRC E0D8BE9A
Accurately ripped (confidence 4) [5C57A30D] (AR v2)
Copy OK

All tracks accurately ripped

No errors occurred

End of status report

–– CUETools DB Plugin V2.1.6

[CTDB TOCID: YpSjU98wvzflUyDqGTzGa2Von10-] found
Submit result: YpSjU98wvzflUyDqGTzGa2Von10- has been confirmed
Track | CTDB Status
1 | (7/7) Accurately ripped
2 | (7/7) Accurately ripped
3 | (7/7) Accurately ripped
4 | (7/7) Accurately ripped
5 | (7/7) Accurately ripped
6 | (7/7) Accurately ripped
7 | (7/7) Accurately ripped
8 | (7/7) Accurately ripped
9 | (7/7) Accurately ripped
10 | (7/7) Accurately ripped
11 | (6/7) Accurately ripped, or (1/7) differs in 3 samples @03:33:35
12 | (7/7) Accurately ripped
13 | (7/7) Accurately ripped

==== Log checksum F2858AE59399B8C9E72BFDADF31E117409A0C35B46AB7F6C2FAAB6278DD12EF1 ====

Monica – All Eyez on Me (2002) {J Records} Download, Warez, DDL, Free, Full Album, Torrent, Legal.

Download


  • Recent Posts

  • Recent Tags