Money Mark – Push The Button Sampler (EP) (1998)

Download
Money Mark - Push The Button Sampler (EP) (1998)

Money Mark – Push The Button Sampler (EP) (1998)
EAC Rip | FLAC with CUE and log | scans | 121 mb
MP3 CBR 320kbps | RAR | 41 mb
Genre: alternative, indie pop

The Push The Button Sampler is a 5-song sampler CD for the album Push The Button by American singer and musician Mark Ramos-Nishita, who is better known as Keyboard Money Mark or simply as Money Mark. He became known as the Beastie Boys keyboardist in the 1990’s but also continued creating music as a solo artist. This was a sampler for his major label debut.

Money Mark - Push The Button Sampler (EP) (1998)

1. Push The Button
2. All The People
3. Maybe I’m Dead
4. Hand In Your Head
5. Rock In The Rain

Money Mark - Push The Button Sampler (EP) (1998)
EAC Log
Exact Audio Copy V1.1 from 23. June 2015

EAC extraction logfile from 25. January 2017, 9:41

Money Mark / Push The Button Sampler

Used drive : TEAC DVD-ROM DV-28SW Adapter: 1 ID: 0

Read mode : Secure
Utilize accurate stream : Yes
Defeat audio cache : Yes
Make use of C2 pointers : No

Read offset correction : 6
Overread into Lead-In and Lead-Out : No
Fill up missing offset samples with silence : Yes
Delete leading and trailing silent blocks : No
Null samples used in CRC calculations : Yes
Used interface : Native Win32 interface for Win NT & 2000
Gap handling : Appended to previous track

Used output format : Internal WAV Routines
Sample format : 44.100 Hz; 16 Bit; Stereo

TOC of the extracted CD

Track | Start | Length | Start sector | End sector
––––––––––––––––––––––––––––-
1 | 0:00.32 | 2:58.68 | 32 | 13449
2 | 2:59.25 | 3:34.52 | 13450 | 29551
3 | 6:34.02 | 4:05.58 | 29552 | 47984
4 | 10:39.60 | 3:47.15 | 47985 | 65024
5 | 14:27.00 | 3:38.37 | 65025 | 81411

Track 1

Filename C:My DocumentsMy FLACMoney Mark – Push The Button Sampler (1998) [FLAC]1 – Push The Button.wav

Pre-gap length 0:00:02.32

Peak level 99.2 %
Extraction speed 2.2 X
Track quality 100.0 %
Test CRC F327D8CF
Copy CRC F327D8CF
Track not present in AccurateRip database
Copy OK

Track 2

Filename C:My DocumentsMy FLACMoney Mark – Push The Button Sampler (1998) [FLAC]2 – All The People.wav

Pre-gap length 0:00:02.63

Peak level 100.0 %
Extraction speed 2.9 X
Track quality 100.0 %
Test CRC 3F18181E
Copy CRC 3F18181E
Track not present in AccurateRip database
Copy OK

Track 3

Filename C:My DocumentsMy FLACMoney Mark – Push The Button Sampler (1998) [FLAC]3 – Maybe I’m Dead.wav

Pre-gap length 0:00:02.62

Peak level 100.0 %
Extraction speed 3.0 X
Track quality 100.0 %
Test CRC E3444E88
Copy CRC E3444E88
Track not present in AccurateRip database
Copy OK

Track 4

Filename C:My DocumentsMy FLACMoney Mark – Push The Button Sampler (1998) [FLAC]4 – Hand In Your Head.wav

Pre-gap length 0:00:02.60

Peak level 100.0 %
Extraction speed 3.4 X
Track quality 100.0 %
Test CRC D1509D52
Copy CRC D1509D52
Track not present in AccurateRip database
Copy OK

Track 5

Filename C:My DocumentsMy FLACMoney Mark – Push The Button Sampler (1998) [FLAC]5 – Rock In The Rain.wav

Pre-gap length 0:00:02.60

Peak level 100.0 %
Extraction speed 3.1 X
Track quality 99.9 %
Test CRC F6031EBA
Copy CRC F6031EBA
Track not present in AccurateRip database
Copy OK

None of the tracks are present in the AccurateRip database

No errors occurred

End of status report

–– CUETools DB Plugin V2.1.6

[CTDB TOCID: 8gzJWhb10g9eCmEImtXDvfNArM8-] disk not present in database
Submit result: 8gzJWhb10g9eCmEImtXDvfNArM8- has been uploaded

==== Log checksum F968468E3549DD9E1AA49A1422BD8165B65A15BA9E2D076620B7F1C98EAE73F5 ====

Money Mark - Push The Button Sampler (EP) (1998)

Money Mark – Push The Button Sampler (EP) (1998) Download, Warez, DDL, Free, Full Album, Torrent, Legal.

Download