Money Mark – Mark's Keyboard Repair (1995) {Pinto/Mo' Wax/ffrr}

Download
Money Mark - Mark's Keyboard Repair (1995) {Pinto/Mo' Wax/ffrr}

Money Mark – Mark’s Keyboard Repair (1995) {Pinto/Mo’ Wax/ffrr}
EAC Rip | FLAC with CUE and log | scans | 324 mb
MP3 CBR 320kbps | RAR | 163 mb
Genre: alternative, alternative pop, indie pop

Mark’s Keyboard Repair is the 1995 debut album by Mark Ramos-Nishita, better known as Keyboard Money Mark or Money Mark. These recordings from previously self-released EP’s is what lead him to becoming a member of the Beastie Boys. This was released on Money Mark’s own Pinto label, distributed by Mo’ Wax, which was distributed by ffrr.

Money Mark - Mark's Keyboard Repair (1995) {Pinto/Mo' Wax/ffrr}

01. Pretty Pain
02. No Fighting
03. Ba Ba Ba Boom
04. Have Clav Will Travel
05. Don’t Miss The Boat
06. Sunday Gardena Blvd.
07. Insects Are All Around Us
08. Scenes From…
09. Poets Walk
10. Spooky
11. Cry
12. Ease
13. Got My Hand In Your Head
14. That’s For Sure
15. Sixth Synth
16. Invitations
17. Time Lapse Life
18. Seven, Seven, Seven
19. Sometimes You Gotta Make It Alone
20. Pinto’s New Car
21. Revolt Of The Octopi
22. Never Stop
23. Slow Flames
24. Hard Ass
25. From The Beginning To The End
26. Functions
27. World Lesson Pt. 2
28. Inner Laugh
29. The Grade
30. Mark’s Keyboard Repair

Money Mark - Mark's Keyboard Repair (1995) {Pinto/Mo' Wax/ffrr}
EAC Log
EAC extraction logfile from 26. June 2017, 17:38 for CD
Money Mark / Mark’s Keyboard Repair

Used drive : TSSTcorpDVD+-RW TS-H653B Adapter: 2 ID: 0
Read mode : Secure with NO C2, accurate stream, disable cache
Read offset correction : 6
Overread into Lead-In and Lead-Out : No

Used output format : Internal WAV Routines
44.100 Hz; 16 Bit; Stereo

Other options :
Fill up missing offset samples with silence : Yes
Delete leading and trailing silent blocks : No
Native Win32 interface for Win NT & 2000

Track 1
Filename C:Documents and SettingscuntfistDesktopFLAC’s13Money Mark – Mark’s Keyboard Repair (1995) [FLAC] {Pinto, Mo’ Wax, ffrr}1 – Pretty Pain.wav

Pre-gap length 0:00:02.42

Peak level 68.3 %
Track quality 100.0 %
Test CRC 4067CC21
Copy CRC 4067CC21
Copy OK

Track 2
Filename C:Documents and SettingscuntfistDesktopFLAC’s13Money Mark – Mark’s Keyboard Repair (1995) [FLAC] {Pinto, Mo’ Wax, ffrr}2 – No Fighting.wav

Pre-gap length 0:00:00.22

Peak level 64.9 %
Track quality 100.0 %
Test CRC F7358FD3
Copy CRC F7358FD3
Copy OK

Track 3
Filename C:Documents and SettingscuntfistDesktopFLAC’s13Money Mark – Mark’s Keyboard Repair (1995) [FLAC] {Pinto, Mo’ Wax, ffrr}3 – Ba Ba Ba Boom.wav

Peak level 54.1 %
Track quality 100.0 %
Test CRC 7ABE170D
Copy CRC 7ABE170D
Copy OK

Track 4
Filename C:Documents and SettingscuntfistDesktopFLAC’s13Money Mark – Mark’s Keyboard Repair (1995) [FLAC] {Pinto, Mo’ Wax, ffrr}4 – Have Clav Will Travel.wav

Pre-gap length 0:00:01.02

Peak level 64.1 %
Track quality 100.0 %
Test CRC F7FDB68C
Copy CRC F7FDB68C
Copy OK

Track 5
Filename C:Documents and SettingscuntfistDesktopFLAC’s13Money Mark – Mark’s Keyboard Repair (1995) [FLAC] {Pinto, Mo’ Wax, ffrr}5 – Don’t Miss The Boat.wav

Peak level 60.3 %
Track quality 100.0 %
Test CRC E3F25026
Copy CRC E3F25026
Copy OK

Track 6
Filename C:Documents and SettingscuntfistDesktopFLAC’s13Money Mark – Mark’s Keyboard Repair (1995) [FLAC] {Pinto, Mo’ Wax, ffrr}6 – Sunday Gardena Blvd..wav

Pre-gap length 0:00:01.20

Peak level 66.4 %
Track quality 99.9 %
Test CRC DF9FDEBB
Copy CRC DF9FDEBB
Copy OK

Track 7
Filename C:Documents and SettingscuntfistDesktopFLAC’s13Money Mark – Mark’s Keyboard Repair (1995) [FLAC] {Pinto, Mo’ Wax, ffrr}7 – Insects Are All Around Us.wav

Pre-gap length 0:00:00.09

Peak level 53.0 %
Track quality 99.9 %
Test CRC 3BC67AF2
Copy CRC 3BC67AF2
Copy OK

Track 8
Filename C:Documents and SettingscuntfistDesktopFLAC’s13Money Mark – Mark’s Keyboard Repair (1995) [FLAC] {Pinto, Mo’ Wax, ffrr}8 – Scenes From….wav

Peak level 53.9 %
Track quality 99.8 %
Test CRC D7D07F3C
Copy CRC D7D07F3C
Copy OK

Track 9
Filename C:Documents and SettingscuntfistDesktopFLAC’s13Money Mark – Mark’s Keyboard Repair (1995) [FLAC] {Pinto, Mo’ Wax, ffrr}9 – Poets Walk.wav

Peak level 63.3 %
Track quality 100.0 %
Test CRC D7CA176D
Copy CRC D7CA176D
Copy OK

Track 10
Filename C:Documents and SettingscuntfistDesktopFLAC’s13Money Mark – Mark’s Keyboard Repair (1995) [FLAC] {Pinto, Mo’ Wax, ffrr}10 – Spooky.wav

Peak level 75.4 %
Track quality 100.0 %
Test CRC 56BB11FC
Copy CRC 56BB11FC
Copy OK

Track 11
Filename C:Documents and SettingscuntfistDesktopFLAC’s13Money Mark – Mark’s Keyboard Repair (1995) [FLAC] {Pinto, Mo’ Wax, ffrr}11 – Cry.wav

Peak level 58.4 %
Track quality 100.0 %
Test CRC 80DC1476
Copy CRC 80DC1476
Copy OK

Track 12
Filename C:Documents and SettingscuntfistDesktopFLAC’s13Money Mark – Mark’s Keyboard Repair (1995) [FLAC] {Pinto, Mo’ Wax, ffrr}12 – Ease.wav

Pre-gap length 0:00:00.80

Peak level 98.0 %
Track quality 100.0 %
Test CRC 3E4B145D
Copy CRC 3E4B145D
Copy OK

Track 13
Filename C:Documents and SettingscuntfistDesktopFLAC’s13Money Mark – Mark’s Keyboard Repair (1995) [FLAC] {Pinto, Mo’ Wax, ffrr}13 – Got My Hand In Your Head.wav

Peak level 89.6 %
Track quality 100.0 %
Test CRC 3FC7A752
Copy CRC 3FC7A752
Copy OK

Track 14
Filename C:Documents and SettingscuntfistDesktopFLAC’s13Money Mark – Mark’s Keyboard Repair (1995) [FLAC] {Pinto, Mo’ Wax, ffrr}14 – That’s For Sure.wav

Pre-gap length 0:00:00.93

Peak level 70.7 %
Track quality 100.0 %
Test CRC 22122964
Copy CRC 22122964
Copy OK

Track 15
Filename C:Documents and SettingscuntfistDesktopFLAC’s13Money Mark – Mark’s Keyboard Repair (1995) [FLAC] {Pinto, Mo’ Wax, ffrr}15 – Sixth Synth.wav

Peak level 74.8 %
Track quality 100.0 %
Test CRC 01D80834
Copy CRC 01D80834
Copy OK

Track 16
Filename C:Documents and SettingscuntfistDesktopFLAC’s13Money Mark – Mark’s Keyboard Repair (1995) [FLAC] {Pinto, Mo’ Wax, ffrr}16 – Invitations.wav

Pre-gap length 0:00:00.20

Peak level 78.5 %
Track quality 100.0 %
Test CRC 59B7E255
Copy CRC 59B7E255
Copy OK

Track 17
Filename C:Documents and SettingscuntfistDesktopFLAC’s13Money Mark – Mark’s Keyboard Repair (1995) [FLAC] {Pinto, Mo’ Wax, ffrr}17 – Time Lapse Life.wav

Pre-gap length 0:00:00.42

Peak level 81.4 %
Track quality 100.0 %
Test CRC A599A54A
Copy CRC A599A54A
Copy OK

Track 18
Filename C:Documents and SettingscuntfistDesktopFLAC’s13Money Mark – Mark’s Keyboard Repair (1995) [FLAC] {Pinto, Mo’ Wax, ffrr}18 – Seven, Seven, Seven.wav

Pre-gap length 0:00:00.86

Peak level 79.1 %
Track quality 100.0 %
Test CRC BB0DC063
Copy CRC BB0DC063
Copy OK

Track 19
Filename C:Documents and SettingscuntfistDesktopFLAC’s13Money Mark – Mark’s Keyboard Repair (1995) [FLAC] {Pinto, Mo’ Wax, ffrr}19 – Sometimes You Gotta Make It Alone.wav

Pre-gap length 0:00:01.44

Peak level 82.8 %
Track quality 100.0 %
Test CRC 6CBC4EB7
Copy CRC 6CBC4EB7
Copy OK

Track 20
Filename C:Documents and SettingscuntfistDesktopFLAC’s13Money Mark – Mark’s Keyboard Repair (1995) [FLAC] {Pinto, Mo’ Wax, ffrr}20 – Pinto’s New Car.wav

Pre-gap length 0:00:00.46

Peak level 92.0 %
Track quality 100.0 %
Test CRC B58379B3
Copy CRC B58379B3
Copy OK

Track 21
Filename C:Documents and SettingscuntfistDesktopFLAC’s13Money Mark – Mark’s Keyboard Repair (1995) [FLAC] {Pinto, Mo’ Wax, ffrr}21 – Revolt Of The Octopi.wav

Pre-gap length 0:00:02.64

Peak level 99.9 %
Track quality 100.0 %
Test CRC 88FAE33C
Copy CRC 88FAE33C
Copy OK

Track 22
Filename C:Documents and SettingscuntfistDesktopFLAC’s13Money Mark – Mark’s Keyboard Repair (1995) [FLAC] {Pinto, Mo’ Wax, ffrr}22 – Never Stop.wav

Peak level 100.0 %
Track quality 99.9 %
Test CRC D6C79C1C
Copy CRC D6C79C1C
Copy OK

Track 23
Filename C:Documents and SettingscuntfistDesktopFLAC’s13Money Mark – Mark’s Keyboard Repair (1995) [FLAC] {Pinto, Mo’ Wax, ffrr}23 – Slow Flames.wav

Pre-gap length 0:00:00.60

Peak level 100.0 %
Track quality 100.0 %
Test CRC 9D56C9BE
Copy CRC 9D56C9BE
Copy OK

Track 24
Filename C:Documents and SettingscuntfistDesktopFLAC’s13Money Mark – Mark’s Keyboard Repair (1995) [FLAC] {Pinto, Mo’ Wax, ffrr}24 – Hard Ass.wav

Pre-gap length 0:00:02.33

Peak level 100.0 %
Track quality 100.0 %
Test CRC F6F883C3
Copy CRC F6F883C3
Copy OK

Track 25
Filename C:Documents and SettingscuntfistDesktopFLAC’s13Money Mark – Mark’s Keyboard Repair (1995) [FLAC] {Pinto, Mo’ Wax, ffrr}25 – From The Beginning To The End.wav

Pre-gap length 0:00:00.96

Peak level 99.9 %
Track quality 100.0 %
Test CRC E557DCC1
Copy CRC E557DCC1
Copy OK

Track 26
Filename C:Documents and SettingscuntfistDesktopFLAC’s13Money Mark – Mark’s Keyboard Repair (1995) [FLAC] {Pinto, Mo’ Wax, ffrr}26 – Functions.wav

Peak level 99.5 %
Track quality 100.0 %
Test CRC 37B9F345
Copy CRC 37B9F345
Copy OK

Track 27
Filename C:Documents and SettingscuntfistDesktopFLAC’s13Money Mark – Mark’s Keyboard Repair (1995) [FLAC] {Pinto, Mo’ Wax, ffrr}27 – World Lesson Pt. 2.wav

Pre-gap length 0:00:00.46

Peak level 100.0 %
Track quality 100.0 %
Test CRC D05EEDB7
Copy CRC D05EEDB7
Copy OK

Track 28
Filename C:Documents and SettingscuntfistDesktopFLAC’s13Money Mark – Mark’s Keyboard Repair (1995) [FLAC] {Pinto, Mo’ Wax, ffrr}28 – Inner Laugh.wav

Pre-gap length 0:00:00.82

Peak level 99.9 %
Track quality 99.9 %
Test CRC 2FC7474C
Copy CRC 2FC7474C
Copy OK

Track 29
Filename C:Documents and SettingscuntfistDesktopFLAC’s13Money Mark – Mark’s Keyboard Repair (1995) [FLAC] {Pinto, Mo’ Wax, ffrr}29 – The Grade.wav

Pre-gap length 0:00:01.37

Peak level 99.7 %
Track quality 99.9 %
Test CRC 118FABEF
Copy CRC 118FABEF
Copy OK

Track 30
Filename C:Documents and SettingscuntfistDesktopFLAC’s13Money Mark – Mark’s Keyboard Repair (1995) [FLAC] {Pinto, Mo’ Wax, ffrr}30 – Mark’s Keyboard Repair.wav

Pre-gap length 0:00:01.56

Peak level 99.0 %
Track quality 99.8 %
Test CRC 48C754A5
Copy CRC 48C754A5
Copy OK

No errors occured

End of status report

Money Mark - Mark's Keyboard Repair (1995) {Pinto/Mo' Wax/ffrr}

Money Mark – Mark's Keyboard Repair (1995) {Pinto/Mo' Wax/ffrr} Download, Warez, DDL, Free, Full Album, Torrent, Legal.

Download