Money Mark – Change Is Coming (2000) {Pinto}

Download
Money Mark - Change Is Coming (2000) {Pinto}

Money Mark – Change Is Coming (2000) {Pinto}
EAC Rip | FLAC with CUE and log | scans | 256 mb
MP3 CBR 320kbps | RAR | 94 mb
Genre: alternative, alternative pop, pop soul

Change Is Coming is the 2000 album by Mark Ramos-Nishita, who has been known as Keyboard Money Mark but became known simply as Money Mark. This was released through Pinto via Emperor Norton Records.

Money Mark - Change Is Coming (2000) {Pinto}

1. Chocochip
2. Information Contraband
3. Caught Without A Race
4. Glitch In Da System
5. Another Day To Love You
6. Soul Drive Sixth Avenue
7. People’s Party (Red Alert)
8. Love Undisputed
9. Doo Doo Doo
10. Use Your Head
11. Pepe Y Irene
12. Rain (NYC)

All songs produced by Mark Ramos-Nishita except 10 and 11, produced by Mario Caldato Jr.
Mixed and edited by Mark Ramos-Nishita, Mario Caldato Jr. and Robert Carranza

EAC Log
Exact Audio Copy V1.1 from 23. June 2015

EAC extraction logfile from 14. December 2016, 7:40

Money Mark / Change Is Coming

Used drive : TEAC DVD-ROM DV-28SW Adapter: 1 ID: 0

Read mode : Secure
Utilize accurate stream : Yes
Defeat audio cache : Yes
Make use of C2 pointers : No

Read offset correction : 6
Overread into Lead-In and Lead-Out : No
Fill up missing offset samples with silence : Yes
Delete leading and trailing silent blocks : No
Null samples used in CRC calculations : Yes
Used interface : Native Win32 interface for Win NT & 2000
Gap handling : Appended to previous track

Used output format : Internal WAV Routines
Sample format : 44.100 Hz; 16 Bit; Stereo

TOC of the extracted CD

Track | Start | Length | Start sector | End sector
––––––––––––––––––––––––––––-
1 | 0:00.00 | 2:30.52 | 0 | 11301
2 | 2:30.52 | 3:27.54 | 11302 | 26880
3 | 5:58.31 | 2:58.15 | 26881 | 40245
4 | 8:56.46 | 3:24.56 | 40246 | 55601
5 | 12:21.27 | 3:11.48 | 55602 | 69974
6 | 15:33.00 | 3:46.16 | 69975 | 86940
7 | 19:19.16 | 4:00.21 | 86941 | 104961
8 | 23:19.37 | 2:45.51 | 104962 | 117387
9 | 26:05.13 | 2:30.61 | 117388 | 128698
10 | 28:35.74 | 2:49.17 | 128699 | 141390
11 | 31:25.16 | 3:34.32 | 141391 | 157472
12 | 34:59.48 | 3:57.15 | 157473 | 175262

Track 1

Filename C:My DocumentsMy FLACMoney Mark – Change Is Coming (2000) [FLAC] {Pinto}1 – Chocochip.wav

Pre-gap length 0:00:02.00

Peak level 97.2 %
Extraction speed 2.0 X
Track quality 99.9 %
Test CRC 6A6939EA
Copy CRC 6A6939EA
Accurately ripped (confidence 13) [BBC1024F] (AR v2)
Copy OK

Track 2

Filename C:My DocumentsMy FLACMoney Mark – Change Is Coming (2000) [FLAC] {Pinto}2 – Information Contraband.wav

Peak level 97.2 %
Extraction speed 2.9 X
Track quality 100.0 %
Test CRC 6634CB42
Copy CRC 6634CB42
Accurately ripped (confidence 13) [E486D826] (AR v2)
Copy OK

Track 3

Filename C:My DocumentsMy FLACMoney Mark – Change Is Coming (2000) [FLAC] {Pinto}3 – Caught Without A Race.wav

Peak level 97.2 %
Extraction speed 3.1 X
Track quality 100.0 %
Test CRC EC57DB4E
Copy CRC EC57DB4E
Accurately ripped (confidence 13) [580B1933] (AR v2)
Copy OK

Track 4

Filename C:My DocumentsMy FLACMoney Mark – Change Is Coming (2000) [FLAC] {Pinto}4 – Glitch In Da System.wav

Peak level 97.2 %
Extraction speed 3.4 X
Track quality 100.0 %
Test CRC EF175998
Copy CRC EF175998
Accurately ripped (confidence 13) [A2AEAF5B] (AR v2)
Copy OK

Track 5

Filename C:My DocumentsMy FLACMoney Mark – Change Is Coming (2000) [FLAC] {Pinto}5 – Another Day To Love You.wav

Peak level 97.2 %
Extraction speed 3.6 X
Track quality 100.0 %
Test CRC F8E55358
Copy CRC F8E55358
Accurately ripped (confidence 13) [21793AE5] (AR v2)
Copy OK

Track 6

Filename C:My DocumentsMy FLACMoney Mark – Change Is Coming (2000) [FLAC] {Pinto}6 – Soul Drive Sixth Avenue.wav

Peak level 97.2 %
Extraction speed 3.8 X
Track quality 100.0 %
Test CRC 38F69C26
Copy CRC 38F69C26
Accurately ripped (confidence 13) [A870444A] (AR v2)
Copy OK

Track 7

Filename C:My DocumentsMy FLACMoney Mark – Change Is Coming (2000) [FLAC] {Pinto}7 – People’s Party (Red Alert).wav

Pre-gap length 0:00:01.35

Peak level 97.2 %
Extraction speed 4.1 X
Track quality 100.0 %
Test CRC 9DACD2F0
Copy CRC 9DACD2F0
Accurately ripped (confidence 13) [FB3848F2] (AR v2)
Copy OK

Track 8

Filename C:My DocumentsMy FLACMoney Mark – Change Is Coming (2000) [FLAC] {Pinto}8 – Love Undisputed.wav

Peak level 97.2 %
Extraction speed 3.2 X
Track quality 99.9 %
Test CRC EE0005FE
Copy CRC EE0005FE
Accurately ripped (confidence 13) [DB58508E] (AR v2)
Copy OK

Track 9

Filename C:My DocumentsMy FLACMoney Mark – Change Is Coming (2000) [FLAC] {Pinto}9 – Doo Doo Doo.wav

Peak level 97.2 %
Extraction speed 4.0 X
Track quality 100.0 %
Test CRC F38F0E0F
Copy CRC F38F0E0F
Accurately ripped (confidence 13) [0C74A9E5] (AR v2)
Copy OK

Track 10

Filename C:My DocumentsMy FLACMoney Mark – Change Is Coming (2000) [FLAC] {Pinto}10 – Use Your Head.wav

Peak level 97.2 %
Extraction speed 4.2 X
Track quality 100.0 %
Test CRC D7221AAD
Copy CRC D7221AAD
Accurately ripped (confidence 13) [DD22FD72] (AR v2)
Copy OK

Track 11

Filename C:My DocumentsMy FLACMoney Mark – Change Is Coming (2000) [FLAC] {Pinto}11 – Pepe Y Irene.wav

Peak level 97.2 %
Extraction speed 3.8 X
Track quality 99.9 %
Test CRC 3D020D8B
Copy CRC 3D020D8B
Accurately ripped (confidence 12) [F27F5917] (AR v2)
Copy OK

Track 12

Filename C:My DocumentsMy FLACMoney Mark – Change Is Coming (2000) [FLAC] {Pinto}12 – Rain (NYC).wav

Pre-gap length 0:00:01.59

Peak level 97.2 %
Extraction speed 4.8 X
Track quality 100.0 %
Test CRC 323D9A7B
Copy CRC 323D9A7B
Accurately ripped (confidence 13) [89B79BA0] (AR v2)
Copy OK

All tracks accurately ripped

No errors occurred

End of status report

–– CUETools DB Plugin V2.1.6

[CTDB TOCID: 4e7fhbII9yol1vuPzXP4Y6vPwtM-] found
Submit result: 4e7fhbII9yol1vuPzXP4Y6vPwtM- has been confirmed
Track | CTDB Status
1 | (20/20) Accurately ripped
2 | (20/20) Accurately ripped
3 | (20/20) Accurately ripped
4 | (20/20) Accurately ripped
5 | (20/20) Accurately ripped
6 | (20/20) Accurately ripped
7 | (20/20) Accurately ripped
8 | (19/20) Accurately ripped
9 | (20/20) Accurately ripped
10 | (20/20) Accurately ripped
11 | (20/20) Accurately ripped
12 | (20/20) Accurately ripped

==== Log checksum 39387AA6D4DA9BE645532ABA3BB214A3B0817E866237FE271F3431104BE5729F ====

Money Mark - Change Is Coming (2000) {Pinto}

Money Mark – Change Is Coming (2000) {Pinto} Download, Warez, DDL, Free, Full Album, Torrent, Legal.

Download