Mise En Scene – Still Life on Fire (2017)

Download
Mise En Scene - Still Life on Fire (2017)

Mise En Scene – Still Life on Fire
EAC Rip | FLAC (tracks)+cue, log, m3u, front cover | 35:08 min | 222 MB
Label: Light Organ Records | Tracks: 12 | Rls.date: 2017
Garage Rock, Female Vocal

Mise en Scene are coiled and ready to leap. The Winnipeg rock outfit, comprised of Stefanie Blondal Johnson, Jodi Dunlop, and Corey Hykawy, are set to release their sophomore album Still Life On Fire (Light Organ Records) this year. The record is a burning holler, a vibrant state-ment on living in the present. In control of everything from their self-made music videos to their cool kid aesthetic, the artists are independent and resilient, wanting to be seen but more im-portantly, to be heard. The album follows 2012’s knockout hit Desire’s Despair (Pipe & Hat) and is produced by Montréal-based mastermind Mike Nash (who has worked with everyone from members of The Dears, Blue Rodeo and Ladies of the Canyon). The sound reflects on years spent honing their craft, touring Canada, the US and Europe, playing the prestigious Primavera Sound festival in Barcelona, Spain, and amassing hordes of fans in France. From the first re-verb buzz to the parting resonant silence, it’s a sun-soaked blur of forward motion, eternal chas-ing. It’s your life on fire.

TRACKLIST
1. Intro (Nothing) (01:44)
2. Closer (03:22)
3. Light In the Night (02:38)
4. Guts/Glory (03:04)
5. I’m Ok (04:08)
6. Waster (02:42)
7. Still Life On Fire (03:40)
8. Scout (03:35)
9. Young Leo (02:59)
10. True (02:44)
11. Same Hearts (03:34)
12. Outro (Everything) (00:57)

EAC Log
Exact Audio Copy V1.3 from 2. September 2016

EAC extraction logfile from 16. July 2017, 18:16

Mise En Scene / Still Life On Fire

Used drive : TSSTcorpDVD+-RW SH-216DB Adapter: 1 ID: 0

Read mode : Secure
Utilize accurate stream : Yes
Defeat audio cache : Yes
Make use of C2 pointers : No

Read offset correction : 6
Overread into Lead-In and Lead-Out : No
Fill up missing offset samples with silence : Yes
Delete leading and trailing silent blocks : No
Null samples used in CRC calculations : Yes
Used interface : Native Win32 interface for Win NT & 2000
Gap handling : Appended to previous track

Used output format : Internal WAV Routines
Sample format : 44.100 Hz; 16 Bit; Stereo

TOC of the extracted CD

Track | Start | Length | Start sector | End sector
––––––––––––––––––––––––––––-
1 | 0:00.00 | 1:44.29 | 0 | 7828
2 | 1:44.29 | 3:22.15 | 7829 | 22993
3 | 5:06.44 | 2:38.34 | 22994 | 34877
4 | 7:45.03 | 3:04.54 | 34878 | 48731
5 | 10:49.57 | 4:08.51 | 48732 | 67382
6 | 14:58.33 | 2:42.14 | 67383 | 79546
7 | 17:40.47 | 3:40.48 | 79547 | 96094
8 | 21:21.20 | 3:35.52 | 96095 | 112271
9 | 24:56.72 | 2:59.68 | 112272 | 125764
10 | 27:56.65 | 2:45.00 | 125765 | 138139
11 | 30:41.65 | 3:34.14 | 138140 | 154203
12 | 34:16.04 | 0:57.27 | 154204 | 158505

Track 1

Filename C:EAC RipsMise En Scene – 2017 – Still Life on Fire [FLAC] {Light Organ 25396 11143}1 – Intro (Nothing).wav

Pre-gap length 0:00:02.00

Peak level 69.4 %
Extraction speed 1.6 X
Track quality 100.0 %
Test CRC 75D16533
Copy CRC 75D16533
Track not present in AccurateRip database
Copy OK

Track 2

Filename C:EAC RipsMise En Scene – 2017 – Still Life on Fire [FLAC] {Light Organ 25396 11143}2 – Closer.wav

Peak level 96.0 %
Extraction speed 1.7 X
Track quality 99.9 %
Test CRC FE604115
Copy CRC FE604115
Track not present in AccurateRip database
Copy OK

Track 3

Filename C:EAC RipsMise En Scene – 2017 – Still Life on Fire [FLAC] {Light Organ 25396 11143}3 – Light In the Night.wav

Peak level 96.0 %
Extraction speed 2.0 X
Track quality 100.0 %
Test CRC 43EFD98C
Copy CRC 43EFD98C
Track not present in AccurateRip database
Copy OK

Track 4

Filename C:EAC RipsMise En Scene – 2017 – Still Life on Fire [FLAC] {Light Organ 25396 11143}4 – Guts,Glory.wav

Peak level 96.0 %
Extraction speed 2.2 X
Track quality 100.0 %
Test CRC 6C578A23
Copy CRC 6C578A23
Track not present in AccurateRip database
Copy OK

Track 5

Filename C:EAC RipsMise En Scene – 2017 – Still Life on Fire [FLAC] {Light Organ 25396 11143}5 – I’m Ok.wav

Peak level 95.9 %
Extraction speed 2.0 X
Track quality 99.9 %
Test CRC 52841956
Copy CRC 52841956
Track not present in AccurateRip database
Copy OK

Track 6

Filename C:EAC RipsMise En Scene – 2017 – Still Life on Fire [FLAC] {Light Organ 25396 11143}6 – Waster.wav

Peak level 96.1 %
Extraction speed 2.3 X
Track quality 100.0 %
Test CRC 7F1FE497
Copy CRC 7F1FE497
Track not present in AccurateRip database
Copy OK

Track 7

Filename C:EAC RipsMise En Scene – 2017 – Still Life on Fire [FLAC] {Light Organ 25396 11143}7 – Still Life On Fire.wav

Peak level 95.9 %
Extraction speed 2.6 X
Track quality 100.0 %
Test CRC 72E8679E
Copy CRC 72E8679E
Track not present in AccurateRip database
Copy OK

Track 8

Filename C:EAC RipsMise En Scene – 2017 – Still Life on Fire [FLAC] {Light Organ 25396 11143}8 – Scout.wav

Peak level 96.0 %
Extraction speed 2.7 X
Track quality 100.0 %
Test CRC 7C70F813
Copy CRC 7C70F813
Track not present in AccurateRip database
Copy OK

Track 9

Filename C:EAC RipsMise En Scene – 2017 – Still Life on Fire [FLAC] {Light Organ 25396 11143}9 – Young Leo.wav

Peak level 96.0 %
Extraction speed 2.0 X
Track quality 99.9 %
Test CRC FBA98BC9
Copy CRC FBA98BC9
Track not present in AccurateRip database
Copy OK

Track 10

Filename C:EAC RipsMise En Scene – 2017 – Still Life on Fire [FLAC] {Light Organ 25396 11143}10 – True.wav

Peak level 96.0 %
Extraction speed 2.0 X
Track quality 99.9 %
Test CRC 05278136
Copy CRC 05278136
Track not present in AccurateRip database
Copy OK

Track 11

Filename C:EAC RipsMise En Scene – 2017 – Still Life on Fire [FLAC] {Light Organ 25396 11143}11 – Same Hearts.wav

Peak level 96.0 %
Extraction speed 3.0 X
Track quality 100.0 %
Test CRC 8718D104
Copy CRC 8718D104
Track not present in AccurateRip database
Copy OK

Track 12

Filename C:EAC RipsMise En Scene – 2017 – Still Life on Fire [FLAC] {Light Organ 25396 11143}12 – Outro (Everything).wav

Peak level 33.4 %
Extraction speed 2.1 X
Track quality 100.0 %
Test CRC C75F020B
Copy CRC C75F020B
Track not present in AccurateRip database
Copy OK

None of the tracks are present in the AccurateRip database

No errors occurred

End of status report

–– CUETools DB Plugin V2.1.6

[CTDB TOCID: 7nDAXJ9t94CJTeADjTD8tMzHukA-] found
Submit result: 7nDAXJ9t94CJTeADjTD8tMzHukA- has been confirmed
Track | CTDB Status
1 | (1/1) Accurately ripped
2 | (1/1) Accurately ripped
3 | (1/1) Accurately ripped
4 | (1/1) Accurately ripped
5 | (1/1) Accurately ripped
6 | (1/1) Accurately ripped
7 | (1/1) Accurately ripped
8 | (1/1) Accurately ripped
9 | (1/1) Accurately ripped
10 | (1/1) Accurately ripped
11 | (1/1) Accurately ripped
12 | (1/1) Accurately ripped

==== Log checksum CA2E83C5A242D8A9A1221BF481E5087DBFE4697DBC0E044BFDAA7B21E97C027C ====

Mise En Scene - Still Life on Fire (2017)
Thanks to the Original customer.

Mise En Scene – Still Life on Fire (2017) Download, Warez, DDL, Free, Full Album, Torrent, Legal.

Download