Minguet Quartet – Herzogenberg & Brahms: String Quartets (2016)

Download
Minguet Quartet - Herzogenberg & Brahms: String Quartets (2016)

Minguet Quartet – Herzogenberg & Brahms: String Quartets
Classical | WEB FLAC (tracks) & d. booklet | 128:33 min | 685 MB
Label: CPO | Tracks: 16 | Rls.date: 2016

This long-awaited conclusion of the string quartet series is finally here. Vol. 3 brings together the three masterpieces constituting Herzogenberg’s Op. 42 and showing him at the height of his compositional powers. Throughout his life Herzogenberg was an ardent admirer of Brahms but had a difficult time receiving proper recognition while living in the shadow of this composer ten years his senior. Nevertheless, his string quartets attest to an individual treatment of this demanding genre and hold their own against Brahms’s string quartets as independent compositions very much equal to them.

TRACKLIST

CD1
01. String Quartet in G Minor, Op. 42 No. 1: I. Allegro energico
02. String Quartet in G Minor, Op. 42 No. 1: II. Andantino
03. String Quartet in G Minor, Op. 42 No. 1: III. Allegro molto
04. String Quartet in G Minor, Op. 42 No. 1: IV. Allegro
05. String Quartet in D Minor, Op. 42 No. 2: I. Allegro
06. String Quartet in D Minor, Op. 42 No. 2: II. Andante
07. String Quartet in D Minor, Op. 42 No. 2: III. Allegro
08. String Quartet in D Minor, Op. 42 No. 2: IV. Allegro con brio

CD2
01. String Quartet in G Major, Op. 42 No. 3: I. Allegro
02. String Quartet in G Major, Op. 42 No. 3: II. Andantino
03. String Quartet in G Major, Op. 42 No. 3: III. Allegro moderato
04. String Quartet in G Major, Op. 42 No. 3: IV. Vivace
05. String Quartet No. 1 in C Minor, Op. 51 No. 1: I. Allegro
06. String Quartet No. 1 in C Minor, Op. 51 No. 1: II. Romanze. Poco adagio
07. String Quartet No. 1 in C Minor, Op. 51 No. 1: III. Allegretto molto moderato e comodo
08. String Quartet No. 1 in C Minor, Op. 51 No. 1: IV. Allegro

auCDtect
PERFORMER: auCDtect Task Manager, ver. 1.6.0 RC1 build 1.6.0.1
Copyright © 2008-2010 y-soft. All rights reserved

ANALYZER: auCDtect: CD records authenticity detector, version 0.8.2
Copyright © 2004 Oleg Berngardt. All rights reserved.
Copyright © 2004 Alexander Djourik. All rights reserved.

FILE: 2.08. String Quartet No. 1 in C Minor, Op. 51 No. 1 IV. Allegro.flac
Size: 32765361 Hash: 4DC7026DF49AF8BAA999649EDCF95F8A Accuracy: -m0
Conclusion: CDDA 100%
Signature: 26CA43D88267B9F654C3676E6E1481161B669859
FILE: 2.07. String Quartet No. 1 in C Minor, Op. 51 No. 1 III. Allegretto molto moderato e comodo.flac
Size: 38521274 Hash: 66575DC9E11D6E6F44C3202DDEA3D08F Accuracy: -m0
Conclusion: CDDA 100%
Signature: A7BD3D17609CC6F50FE2579CB09B7BC830068529
FILE: 2.06. String Quartet No. 1 in C Minor, Op. 51 No. 1 II. Romanze. Poco adagio.flac
Size: 31866695 Hash: E71E2625D1DFD642ADCBE3860EB62457 Accuracy: -m0
Conclusion: CDDA 100%
Signature: 34C7703A32A60E6A884C3E4E4C2C9EC9B8C9AB5E
FILE: 2.05. String Quartet No. 1 in C Minor, Op. 51 No. 1 I. Allegro.flac
Size: 51659372 Hash: 989E825C67AB1F31231A75EA82472D95 Accuracy: -m0
Conclusion: CDDA 99%
Signature: B72DEF5A19768EC3C3959513B5FEF5A3A004A18B
FILE: 2.04. String Quartet in G Major, Op. 42 No. 3 IV. Vivace.flac
Size: 21966701 Hash: 10241A30E0F086803F70EE60F5B1ADCC Accuracy: -m0
Conclusion: CDDA 100%
Signature: A0924AC71A9869A57D02706F1554D2E727A297D6
FILE: 2.03. String Quartet in G Major, Op. 42 No. 3 III. Allegro moderato.flac
Size: 27476245 Hash: C1FE9B492105AB9F102B34FCD6C90A54 Accuracy: -m0
Conclusion: CDDA 100%
Signature: 59DB496CC00EA0EB418D595B2ED04A72E0E4BB42
FILE: 2.02. String Quartet in G Major, Op. 42 No. 3 II. Andantino.flac
Size: 35139825 Hash: 58ACE9D2276D1F8E02CC1D1841D6566C Accuracy: -m0
Conclusion: CDDA 100%
Signature: 441A3EAF388DFB5DA6A25C3C6B63B87AF1637641
FILE: 2.01. String Quartet in G Major, Op. 42 No. 3 I. Allegro.flac
Size: 39684073 Hash: 6F0A66FE193D2AE4316CF984D6775797 Accuracy: -m0
Conclusion: CDDA 100%
Signature: 5F03FE9FE059BF6AC7FB81C6661EB59546915D4C
FILE: 1.08. String Quartet in D Minor, Op. 42 No. 2 IV. Allegro con brio.flac
Size: 33356974 Hash: 0F3591A2F79ADC32AD4A1D706477EFA1 Accuracy: -m0
Conclusion: CDDA 100%
Signature: A289C4E35DFDFFDDFAA13826667774F6324BE0C2
FILE: 1.07. String Quartet in D Minor, Op. 42 No. 2 III. Allegro.flac
Size: 39778966 Hash: 56530FC171A3DE6AF5E42E2ADFA2D1FA Accuracy: -m0
Conclusion: CDDA 100%
Signature: E7F7528584B1D123D03C10DFC7923383923E1B23
FILE: 1.06. String Quartet in D Minor, Op. 42 No. 2 II. Andante.flac
Size: 41310805 Hash: 2E043555CC1C5788D1926FAC74072D9D Accuracy: -m0
Conclusion: CDDA 100%
Signature: 89CD5C709531AED5B74BABC877B71B291ED50759
FILE: 1.05. String Quartet in D Minor, Op. 42 No. 2 I. Allegro.flac
Size: 55793596 Hash: 7068F4C9A75FDE5DC1DD96C426BC59D4 Accuracy: -m0
Conclusion: CDDA 100%
Signature: 4DC7FDDB77F894690945BF0A8D106357CB78E60A
FILE: 1.04. String Quartet in G Minor, Op. 42 No. 1 IV. Allegro.flac
Size: 42093969 Hash: A4E831D3F611BECCAC30FDB7790C6263 Accuracy: -m0
Conclusion: CDDA 100%
Signature: C2DFF98163CF03E082D7AC54D0124EDF85C3CA12
FILE: 1.03. String Quartet in G Minor, Op. 42 No. 1 III. Allegro molto.flac
Size: 24912003 Hash: 3176DB2AAE000453DC26AFCD735086F4 Accuracy: -m0
Conclusion: CDDA 58%
Signature: 94B4F89642DE19F2857D22E0A80E5761B102EFDF
FILE: 1.02. String Quartet in G Minor, Op. 42 No. 1 II. Andantino.flac
Size: 44908653 Hash: 32A8AC631C34031AB5209DA00E6E3714 Accuracy: -m0
Conclusion: CDDA 43%
Signature: A082ABB5CE244CE37957D58639F07EE767C21FD6
FILE: 1.01. String Quartet in G Minor, Op. 42 No. 1 I. Allegro energico.flac
Size: 62332020 Hash: B79363F8D8D8850189504879732BBFDC Accuracy: -m0
Conclusion: CDDA 100%
Signature: 6EC432C6A8844FE7E9ED8BBD66F90665FB366383

DR
foobar2000 1.3.7 / Dynamic Range Meter 1.1.1
log date: 2017-10-11 12:17:25

––––––––––––––––––––––––––––––––––––––––
Analyzed: Minguet Quartet / Herzogenberg & Brahms: String Quartets
––––––––––––––––––––––––––––––––––––––––

DR Peak RMS Duration Track
––––––––––––––––––––––––––––––––––––––––
DR15 -1.13 dB -21.98 dB 12:37 01-String Quartet in G Minor, Op. 42 No. 1: I. Allegro energico
DR13 -6.78 dB -27.64 dB 10:10 02-String Quartet in G Minor, Op. 42 No. 1: II. Andantino
DR16 -4.85 dB -25.67 dB 5:24 03-String Quartet in G Minor, Op. 42 No. 1: III. Allegro molto
DR14 -1.73 dB -22.14 dB 8:26 04-String Quartet in G Minor, Op. 42 No. 1: IV. Allegro
DR14 -3.46 dB -22.77 dB 11:14 05-String Quartet in D Minor, Op. 42 No. 2: I. Allegro
DR14 -6.94 dB -27.34 dB 9:11 06-String Quartet in D Minor, Op. 42 No. 2: II. Andante
DR15 -2.96 dB -23.96 dB 8:12 07-String Quartet in D Minor, Op. 42 No. 2: III. Allegro
DR15 -3.51 dB -25.07 dB 7:01 08-String Quartet in D Minor, Op. 42 No. 2: IV. Allegro con brio
DR16 -1.14 dB -22.61 dB 7:55 01-String Quartet in G Major, Op. 42 No. 3: I. Allegro
DR13 -5.12 dB -23.45 dB 7:03 02-String Quartet in G Major, Op. 42 No. 3: II. Andantino
DR15 -3.04 dB -22.33 dB 5:13 03-String Quartet in G Major, Op. 42 No. 3: III. Allegro moderato
DR14 -0.81 dB -20.81 dB 4:06 04-String Quartet in G Major, Op. 42 No. 3: IV. Vivace
DR13 -1.93 dB -20.84 dB 10:16 05-String Quartet No. 1 in C Minor, Op. 51 No. 1: I. Allegro
DR13 -8.05 dB -27.73 dB 7:20 06-String Quartet No. 1 in C Minor, Op. 51 No. 1: II. Romanze. Poco adagio
DR14 -5.72 dB -27.22 dB 8:40 07-String Quartet No. 1 in C Minor, Op. 51 No. 1: III. Allegretto molto moderato e comodo
DR13 -2.39 dB -19.70 dB 5:53 08-String Quartet No. 1 in C Minor, Op. 51 No. 1: IV. Allegro
––––––––––––––––––––––––––––––––––––––––

Number of tracks: 16
Official DR value: DR14

Samplerate: 44100 Hz
Channels: 2
Bits per sample: 16
Bitrate: 731 kbps
Codec: FLAC
================================================================================

Thanks to the Original customer.

Minguet Quartet – Herzogenberg & Brahms: String Quartets (2016) Download, Warez, DDL, Free, Full Album, Torrent, Legal.

Download