Milton Marsh – Monism (2016) {Strata East-Manufactured Recordings MFG-036 rec 1973-74}

Download
Milton Marsh - Monism (2016) {Strata East-Manufactured Recordings MFG-036 rec 1973-74}

Milton Marsh – Monism (2016) {Strata East-Manufactured Recordings MFG-036 rec 1973-74}
EAC rip (secure mode) | FLAC (tracks)+CUE+LOG -> 258 Mb | MP3 @320 -> 96 Mb
Full Artwork @ 300 dpi (jpg) -> 9 Mb | 5% repair rar
© 1975, 2016 Strata East / Manufactured Recordings | SES-19758 / MFG-036
Jazz / Spiritual Jazz / Post Bop / Modern Big Band / Avant-Garde Jazz / Saxophone

Rare spiritual jazz by reed player Milton Marsh – one of the harder-to-find albums on Strata East – and one of just a couple incredible records to Marsh’s name! Obscurity aside, this is prime Strata East – with some sprawling moments in a larger band formation that go just far out enough, but an overall approach that’s pretty inside, very much in the label’s strong 70s soul jazz tradition. There’s a pretty large cast of players in action, including some legendary ones like saxophonist David Ware, percussionist Greg Bandy, Cedric Lawson on piano and others. Titles include "Vonda’s Tune", the incredible "Monism" with its spoken word excerpt from Hazrat Inayat Khan’s Sufi Message, nicely read by Marsh himself over an amazing mix of soulful strings and tense interplay, plus "Metamorphosis", "Community Music", "Sabotage 3 Preparations" and "Ode to Nzinga". A lost masterpiece!

Milton Marsh - Monism (2016) {Strata East-Manufactured Recordings MFG-036 rec 1973-74}

Something Else! review by Sammy Stein (June 23, 2016)

Personnel:
Milton Marsh – Conductor, Narration, Saxophone
Joe Ferguson – Saxophone
Rene McLean – Saxophone
David S. Ware – Saxophone
Bill Cody – Saxophone
Reynold Scott – Saxophone
Frank Williams – Trumpet
Sinclair Acey – Trumpet
Bubbles Martin – Trumpet
Kamal Abdul-Alim – Trumpet
Billy Campbell – Trombone
Charles Stevens – Trombone
Bill Lowe – Trombone
Bill Davis – Tuba
Cedric Lawson – Piano
Don Pate – Bass
Greg Bandy – Percussion

Milton Marsh - Monism (2016) {Strata East-Manufactured Recordings MFG-036 rec 1973-74}

tracklist:
01. "Vonda’s Tune" (Part 1 Of "Earth Home Of The Mortals")
02. Community Music
03. Monism
04. Metamorphosis
05. Ode To Nzinga
06. Sabotage, 3 Preparations

EAC log
Exact Audio Copy V1.1 from 23. June 2015

EAC extraction logfile from 24. December 2016, 7:02

Milton Marsh / Monism

Used drive : MATSHITADVD+-RW SW830 Adapter: 1 ID: 0

Read mode : Secure
Utilize accurate stream : Yes
Defeat audio cache : Yes
Make use of C2 pointers : No

Read offset correction : 6
Overread into Lead-In and Lead-Out : No
Fill up missing offset samples with silence : Yes
Delete leading and trailing silent blocks : No
Null samples used in CRC calculations : Yes
Used interface : Native Win32 interface for Win NT & 2000
Gap handling : Appended to previous track

Used output format : User Defined Encoder
Selected bitrate : 896 kBit/s
Quality : High
Add ID3 tag : No
Command line compressor : C:Program Files (x86)Exact Audio CopyFlacflac.exe
Additional command line options : -8 -V -T "ARTIST=%artist%" -T "TITLE=%title%" -T "ALBUM=%albumtitle%" -T "DATE=%year%" -T "TRACKNUMBER=%tracknr%" -T "TOTALTRACKS=%numtracks%" -T "GENRE=%genre%" -T "ALBUMARTIST=%albumartist%" -T "ALBUM ARTIST=%albumartist%" -T "COMMENT=EAC Secure Mode, Test & Copy, AccurateRip, FLAC -8" %source%

TOC of the extracted CD

Track | Start | Length | Start sector | End sector
––––––––––––––––––––––––––––-
1 | 0:00.00 | 2:17.20 | 0 | 10294
2 | 2:17.20 | 6:55.73 | 10295 | 41492
3 | 9:13.18 | 8:48.55 | 41493 | 81147
4 | 18:01.73 | 5:57.03 | 81148 | 107925
5 | 23:59.01 | 7:19.35 | 107926 | 140885
6 | 31:18.36 | 9:15.09 | 140886 | 182519

Track 1

Filename G:New RipsMilton Marsh – Monism (2016) [FLAC]1 – Vonda’s Tune.wav

Pre-gap length 0:00:02.00

Peak level 96.5 %
Extraction speed 3.7 X
Track quality 100.0 %
Test CRC A50A1127
Copy CRC A50A1127
Track not present in AccurateRip database
Copy OK

Track 2

Filename G:New RipsMilton Marsh – Monism (2016) [FLAC]2 – Community Music.wav

Peak level 96.5 %
Extraction speed 4.3 X
Track quality 99.9 %
Test CRC DA9B0E27
Copy CRC DA9B0E27
Track not present in AccurateRip database
Copy OK

Track 3

Filename G:New RipsMilton Marsh – Monism (2016) [FLAC]3 – Monism.wav

Peak level 96.5 %
Extraction speed 5.8 X
Track quality 100.0 %
Test CRC F5E0F6CB
Copy CRC F5E0F6CB
Track not present in AccurateRip database
Copy OK

Track 4

Filename G:New RipsMilton Marsh – Monism (2016) [FLAC]4 – Metamorphosis.wav

Peak level 96.5 %
Extraction speed 6.3 X
Track quality 100.0 %
Test CRC E247C613
Copy CRC E247C613
Track not present in AccurateRip database
Copy OK

Track 5

Filename G:New RipsMilton Marsh – Monism (2016) [FLAC]5 – Ode To Nzinga.wav

Peak level 96.5 %
Extraction speed 6.9 X
Track quality 100.0 %
Test CRC 2054CD8D
Copy CRC 2054CD8D
Track not present in AccurateRip database
Copy OK

Track 6

Filename G:New RipsMilton Marsh – Monism (2016) [FLAC]6 – Sabotage.wav

Peak level 96.5 %
Extraction speed 6.9 X
Track quality 99.9 %
Test CRC 527AA2C8
Copy CRC 527AA2C8
Track not present in AccurateRip database
Copy OK

None of the tracks are present in the AccurateRip database

No errors occurred

End of status report

–– CUETools DB Plugin V2.1.6

[CTDB TOCID: eHN88K2edd_6YuU6JGadTi5ZU8Q-] disk not present in database
Submit result: eHN88K2edd_6YuU6JGadTi5ZU8Q- has been uploaded

==== Log checksum 8D8B54653BA169127149F6FCF8A1CBAC61DAF199E6DBB0376FF49C1FAC29CE71 ====

Milton Marsh - Monism (2016) {Strata East-Manufactured Recordings MFG-036 rec 1973-74}

Milton Marsh - Monism (2016) {Strata East-Manufactured Recordings MFG-036 rec 1973-74}

===

Milton Marsh – Monism (2016) {Strata East-Manufactured Recordings MFG-036 rec 1973-74} Download, Warez, DDL, Free, Full Album, Torrent, Legal.

Download