Millenium – Jericho (2004)

Download
Millenium - Jericho (2004)

Millenium – Jericho (2004)
EAC Rip | FLAC: Image+Cue+Log | 369 Mb | MP3 CBR 320 kbps | 121 Mb | Scans | 34 Mb | Time: 47:08
Metal Heaven | METAL HEAVEN 00003
Melodic Heavy Metal

Millenium is a Melodic Heavy Metal band from USA. This band does a very interesting music very melodic with a lot of great chorus and catchy melodies. "Jericho" is a real good album for all the Metal fans that wants something maybe not very original but really well done and for sure really catchy.

Millenium - Jericho (2004)
Ralph Santolla
Encyclopaedia Metallum | Amazon

Track Listing

01. My Saving Grace (05:37)
02. Heaven Awaits (04:01)
03. My War (04:25)
04. Heresy (04:17)
05. Morning Star (05:03)
06. Above This World (04:02)
07. Enemy Of The Sun (03:23)
08. Wheel Of Fortune (04:36)
09. Let There Be Light (05:14)
10. Burning Again (06:29)

Produced by Ralph Santolla & Pete Coleman

The Band

• Todd Plant: Vocals
• Ralph Santolla (ex-Hollow, ex-Ralph Santolla, Devil’s Highway, Redscream, ex-Deicide, ex-Memorain, ex-Obituary, ex-Sebastian Bach, ex-Iced Earth (live), ex-Melechesh (live), ex-Death (live), ex-Eyewitness, ex-Stare): Guitars, Keyboards
• Shane French: Guitars
• Oliver Hanson: Drums (tracks: 3, 5, 8, 10)
• Tere Bertke: Bass (tracks: 3, 5, 8, 10)
• Mark Prator: Drums (tracks: 1, 2, 4, 6, 7, 9)
• Steve McKenna: Bass (tracks: 1, 2, 4, 6, 7, 9)

*****
• Tracy Labarbera – additional vocals

EAC Log
Exact Audio Copy V1.3 from 2. September 2016

EAC extraction logfile from 2. May 2017, 16:00

Millenium / Jericho

Used drive : MATSHITADVD-RAM UJ8G6 Adapter: 1 ID: 0

Read mode : Secure
Utilize accurate stream : Yes
Defeat audio cache : Yes
Make use of C2 pointers : No

Read offset correction : 103
Overread into Lead-In and Lead-Out : No
Fill up missing offset samples with silence : Yes
Delete leading and trailing silent blocks : No
Null samples used in CRC calculations : Yes
Used interface : Native Win32 interface for Win NT & 2000

Used output format : User Defined Encoder
Selected bitrate : 1024 kBit/s
Quality : High
Add ID3 tag : No
Command line compressor : C:Program Files (x86)Exact Audio CopyFLACFLAC.EXE
Additional command line options : -V -8 -T "Date=%year%" -T"Genre=%genre%" -T"COMMENT=Ripped by Ilijan – ilko" -8 -V %source%

TOC of the extracted CD

Track | Start | Length | Start sector | End sector
––––––––––––––––––––––––––––-
1 | 0:00.00 | 5:37.19 | 0 | 25293
2 | 5:37.19 | 4:01.05 | 25294 | 43373
3 | 9:38.24 | 4:24.72 | 43374 | 63245
4 | 14:03.21 | 4:17.26 | 63246 | 82546
5 | 18:20.47 | 5:02.35 | 82547 | 105231
6 | 23:23.07 | 4:02.33 | 105232 | 123414
7 | 27:25.40 | 3:23.07 | 123415 | 138646
8 | 30:48.47 | 4:35.72 | 138647 | 159343
9 | 35:24.44 | 5:14.11 | 159344 | 182904
10 | 40:38.55 | 6:29.05 | 182905 | 212084

Range status and errors

Selected range

Filename D:ilkoMillenium – Jericho.wav

Peak level 100.0 %
Extraction speed 3.9 X
Range quality 100.0 %
Test CRC FBA7F312
Copy CRC FBA7F312
Copy OK

No errors occurred

AccurateRip summary

Track 1 accurately ripped (confidence 5) [9066E68E] (AR v2)
Track 2 accurately ripped (confidence 5) [C4769A76] (AR v2)
Track 3 accurately ripped (confidence 5) [10CBE61F] (AR v2)
Track 4 accurately ripped (confidence 5) [7D2E4458] (AR v2)
Track 5 accurately ripped (confidence 5) [48B1C6A8] (AR v2)
Track 6 accurately ripped (confidence 5) [2C5B1BDC] (AR v2)
Track 7 accurately ripped (confidence 5) [261CDF84] (AR v2)
Track 8 accurately ripped (confidence 5) [4792F3CD] (AR v2)
Track 9 accurately ripped (confidence 5) [A2D19584] (AR v2)
Track 10 accurately ripped (confidence 5) [EAD42570] (AR v2)

All tracks accurately ripped

End of status report

–– CUETools DB Plugin V2.1.6

[CTDB TOCID: umN.an6thVQ64c5EZzZDXGye_ME-] found
Submit result: umN.an6thVQ64c5EZzZDXGye_ME- has been confirmed
Track | CTDB Status
1 | (11/11) Accurately ripped
2 | (11/11) Accurately ripped
3 | (11/11) Accurately ripped
4 | (11/11) Accurately ripped
5 | (10/11) Accurately ripped
6 | (11/11) Accurately ripped
7 | (10/11) Accurately ripped
8 | (11/11) Accurately ripped
9 | (11/11) Accurately ripped
10 | (11/11) Accurately ripped

==== Log checksum A56C1040BF4FFE929D160339BFE0BD751304D3BE421D1B24A0172FDBD980086A ====

Many thanks to the original uploader: Ilijan

SEE also:
Millenium 1997 Millenium [Japanese Ed.]
Millenium 1999 Angelfire [Japanese Ed.]
Millenium 2000 Hourglass [Japanese Ed.]

……
Welcome to My Blog for more wonderful music!
……

Millenium – Jericho (2004) Download, Warez, DDL, Free, Full Album, Torrent, Legal.

Download