Miles Davis – Nefertiti (1967) [MFSL Remastered 2015] Audio CD Layer

Download
Miles Davis - Nefertiti (1967) [MFSL Remastered 2015] Audio CD Layer

Miles Davis – Nefertiti (1967) [MFSL Remastered 2015]
EAC | FLAC | Tracks (Cue&Log) ~ 239 Mb | Mp3 (CBR320) ~ 99 Mb | Scans included | 00:39:16
Hard Bop, Post-Bop, Modal Jazz | Label: Mobile Fidelity Sound Lab/Columbia | # UDSACD 2146

Nefertiti, the fourth album by Miles Davis’ second classic quintet, continues the forward motion of Sorcerer, as the group settles into a low-key, exploratory groove, offering music with recognizable themes – but themes that were deliberately dissonant, slightly unsettling even as they burrowed their way into the consciousness. In a sense, this is mood music, since, like on much of Sorcerer, the individual parts mesh in unpredictable ways, creating evocative, floating soundscapes. This music anticipates the free-fall, impressionistic work of In a Silent Way, yet it remains rooted in hard bop, particularly when the tempo is a bit sprightly, as on "Hand Jive." Yet even when the instrumentalists and soloists are placed in the foreground – such as Miles’ extended opening solo on "Madness" or Hancock’s long solo toward the end of the piece – this never feels like showcases for virtuosity, the way some showboating hard bop can, though each player shines. What’s impressive, like on all of this quintet’s sessions, is the interplay, how the musicians follow an unpredictable path as a unit, turning in music that is always searching, always provocative, and never boring. Perhaps Nefertiti’s charms are a little more subtle than those of its predecessors, but that makes it intriguing. Besides, this album so clearly points the way to fusion, while remaining acoustic, that it may force listeners on either side of the fence into another direction.

Review by Stephen Thomas Erlewine, Allmusic.com

Miles Davis - Nefertiti (1967) [MFSL Remastered 2015] Audio CD Layer

Miles Davis at Allmusic
Miles Davis Website
Miles Davis at Wiki

Miles Davis – trumpet
Wayne Shorter – tenor saxophone
Herbie Hancock – piano
Ron Carter – bass
Tony Williams – drums

Recorded at Columbia 30th Street Studio, New York on June 7 – July 19, 1967.

Tracklist:

01. Nefertiti (7:55)
02. Fall (6:38)
03. Hand Jive (8:57)
04. Madness (7:33)
05. Riot (3:06)
06. Pinocchio (5:08)

EAC log
Exact Audio Copy V1.3 from 2. September 2016

EAC extraction logfile from 12. July 2017, 23:17

Miles Davis / Nefertiti (2015 MFSL)

Used drive : PLEXTOR CD-R PREMIUM Adapter: 1 ID: 1

Read mode : Secure
Utilize accurate stream : Yes
Defeat audio cache : Yes
Make use of C2 pointers : No

Read offset correction : 30
Overread into Lead-In and Lead-Out : No
Fill up missing offset samples with silence : Yes
Delete leading and trailing silent blocks : No
Null samples used in CRC calculations : Yes
Used interface : Native Win32 interface for Win NT & 2000
Gap handling : Appended to previous track

Used output format : User Defined Encoder
Selected bitrate : 768 kBit/s
Quality : High
Add ID3 tag : No
Command line compressor : C:Program Files (x86)Exact Audio CopyFLACFLAC.EXE
Additional command line options : -6 -e -p -V -T "ARTIST=%artist%" -T "TITLE=%title%" -T "ALBUM=%albumtitle%" -T "DATE=%year%" -T "TRACKNUMBER=%tracknr%" -T "GENRE=%genre%" -T "PERFORMER=%albuminterpret%" -T "COMPOSER=%composer%" %haslyrics%–tag-from-file=LYRICS="%lyricsfile%"%haslyrics% -T "ALBUMARTIST=%albumartist%" -T "DISCNUMBER=%cdnumber%" -T "TOTALDISCS=%totalcds%" -T "TOTALTRACKS=%numtracks%" -T "COMMENT=%comment%" %source% -o %dest%

TOC of the extracted CD

Track | Start | Length | Start sector | End sector
––––––––––––––––––––––––––––-
1 | 0:00.00 | 7:54.39 | 0 | 35588
2 | 7:54.39 | 6:38.02 | 35589 | 65440
3 | 14:32.41 | 8:57.07 | 65441 | 105722
4 | 23:29.48 | 7:32.47 | 105723 | 139669
5 | 31:02.20 | 3:05.54 | 139670 | 153598
6 | 34:07.74 | 5:07.72 | 153599 | 176695

Track 1

Filename C:tmp0_RIPS1 – Nefertiti.wav

Pre-gap length 0:00:02.00

Peak level 94.6 %
Extraction speed 9.4 X
Track quality 100.0 %
Test CRC F4E42912
Copy CRC F4E42912
Accurately ripped (confidence 10) [53B400BB] (AR v2)
Copy OK

Track 2

Filename C:tmp0_RIPS2 – Fall.wav

Peak level 97.1 %
Extraction speed 10.7 X
Track quality 100.0 %
Test CRC 3BD2308D
Copy CRC 3BD2308D
Accurately ripped (confidence 10) [CB2FB4B5] (AR v2)
Copy OK

Track 3

Filename C:tmp0_RIPS3 – Hand Jive.wav

Peak level 97.0 %
Extraction speed 12.2 X
Track quality 100.0 %
Test CRC 049A1F80
Copy CRC 049A1F80
Accurately ripped (confidence 10) [CE26795A] (AR v2)
Copy OK

Track 4

Filename C:tmp0_RIPS4 – Madness.wav

Peak level 100.0 %
Extraction speed 13.4 X
Track quality 100.0 %
Test CRC AF81FA3C
Copy CRC AF81FA3C
Accurately ripped (confidence 10) [6C4C5C9D] (AR v2)
Copy OK

Track 5

Filename C:tmp0_RIPS5 – Riot.wav

Peak level 100.0 %
Extraction speed 13.4 X
Track quality 100.0 %
Test CRC 7042C9D0
Copy CRC 7042C9D0
Accurately ripped (confidence 10) [A5666B9A] (AR v2)
Copy OK

Track 6

Filename C:tmp0_RIPS6 – Pinocchio.wav

Peak level 93.9 %
Extraction speed 12.9 X
Track quality 100.0 %
Test CRC 71675E46
Copy CRC 71675E46
Accurately ripped (confidence 10) [43C1FE6E] (AR v2)
Copy OK

All tracks accurately ripped

No errors occurred

End of status report

–– CUETools DB Plugin V2.1.6

[CTDB TOCID: 0l3vc653rOLT9KbByh6Hf19t6Dw-] found
Submit result: 0l3vc653rOLT9KbByh6Hf19t6Dw- has been confirmed
Track | CTDB Status
1 | (16/16) Accurately ripped
2 | (15/16) Accurately ripped
3 | (16/16) Accurately ripped
4 | (16/16) Accurately ripped
5 | (15/16) Accurately ripped
6 | (16/16) Accurately ripped

==== Log checksum A4070F1341775EE429EED37332AFC709C5A423F2A3367250C529F9AD24A0DC03 ====

DR log
foobar2000 1.2 / Dynamic Range Meter 1.1.1
log date: 2017-07-16 02:08:44

––––––––––––––––––––––––––––––––––––––––
Analyzed: Miles Davis / Nefertiti
––––––––––––––––––––––––––––––––––––––––

DR Peak RMS Duration Track
––––––––––––––––––––––––––––––––––––––––
DR13 -0.48 dB -16.93 dB 7:55 01-Nefertiti
DR13 -0.26 dB -18.04 dB 6:38 02-Fall
DR12 -0.26 dB -15.49 dB 8:57 03-Hand Jive
DR13 0.00 dB -17.10 dB 7:33 04-Madness
DR12 0.00 dB -15.42 dB 3:06 05-Riot
DR12 -0.54 dB -15.46 dB 5:08 06-Pinocchio
––––––––––––––––––––––––––––––––––––––––

Number of tracks: 6
Official DR value: DR12

Samplerate: 44100 Hz
Channels: 2
Bits per sample: 16
Bitrate: 852 kbps
Codec: FLAC
================================================================================

Miles Davis - Nefertiti (1967) [MFSL Remastered 2015] Audio CD Layer

Miles Davis - Nefertiti (1967) [MFSL Remastered 2015] Audio CD Layer

All thanks to original releaser – mclarenspy

More interesting music in My Blog

Miles Davis – Kind Of Blue (1959) [2010 2CD Edition with Two Bonus Albums]

Miles Davis ‎– ‘Four’ & More: Recorded Live In Concert (1964) Japanese Press 1990

Miles Davis – Miles In The Sky (1968) Japanese Reissue 1991

Miles Davis – Bitches Brew (1970) 2CD Remastered Reissue 2013

Miles Davis – Live-Evil (1971) 2 CDs, Japanese Press 1987

Miles Davis – Get Up With It (1974) 2CD [Japanese Reissue 1996]

Miles Davis – The Real… Miles Davis, The Ultimate Collection (2011) 3 CDs

Miles Davis – Filles de Kilimanjaro (1968) [MFSL Remastered 2015]

Miles Davis – Nefertiti (1967) [MFSL Remastered 2015] Audio CD Layer Download, Warez, DDL, Free, Full Album, Torrent, Legal.

Download