Miles Davis – My Funny Valentine (1965) [MFSL Remastered 2014] Audio CD Layer

Download
Miles Davis - My Funny Valentine (1965) [MFSL Remastered 2014] Audio CD Layer

Miles Davis – My Funny Valentine (1965) [MFSL Remastered 2014]
EAC | FLAC | Tracks (Cue&Log) ~ 366 Mb | Mp3 (CBR320) ~ 158 Mb | Scans included | 01:03:53
Hard Bop, Cool, Trumpet Jazz | Label: Mobile Fidelity Sound Lab | # UDSACD 2141

Miles Davis’ concert of February 12, 1964, was divided into two LPs, with all of the ballads put on My Funny Valentine. These five lengthy tracks (specifically, "All of You," "Stella by Starlight," "All Blues," "I Thought About You," and the title cut) put the emphasis on the lyricism of Davis, along with some strong statements from tenor saxophonist George Coleman and freer moments from the young rhythm section of pianist Herbie Hancock, bassist Ron Carter, and drummer Tony Williams. This hour-long LP complements the up-tempo romps of Four & More.

Review by Scott Yanow, Allmusic.com

Miles Davis - My Funny Valentine (1965) [MFSL Remastered 2014] Audio CD Layer

Miles Davis at Allmusic
Miles Davis Website
Miles Davis at Wiki

Miles Davis – trumpet
George Coleman – tenor saxophone
Herbie Hancock – piano
Ron Carter – bass
Tony Williams – drums
Recorded live at the Philharmonic Hall, Lincoln Center, New York on February 12, 1964.

Tracklist:

01. My Funny Valentine (15:14)
02. All of You (15:10)
03. Stella by Starlight (13:07)
04. All Blues (9:01)
05. I Thought About You (11:22)

EAC log
Exact Audio Copy V1.3 from 2. September 2016

EAC extraction logfile from 11. July 2017, 21:49

Miles Davis / My Funny Valentine – In Concert (2014 MFSL)

Used drive : PLEXTOR CD-R PREMIUM Adapter: 1 ID: 1

Read mode : Secure
Utilize accurate stream : Yes
Defeat audio cache : Yes
Make use of C2 pointers : No

Read offset correction : 30
Overread into Lead-In and Lead-Out : No
Fill up missing offset samples with silence : Yes
Delete leading and trailing silent blocks : No
Null samples used in CRC calculations : Yes
Used interface : Native Win32 interface for Win NT & 2000
Gap handling : Appended to previous track

Used output format : User Defined Encoder
Selected bitrate : 768 kBit/s
Quality : High
Add ID3 tag : No
Command line compressor : C:Program Files (x86)Exact Audio CopyFLACFLAC.EXE
Additional command line options : -6 -e -p -V -T "ARTIST=%artist%" -T "TITLE=%title%" -T "ALBUM=%albumtitle%" -T "DATE=%year%" -T "TRACKNUMBER=%tracknr%" -T "GENRE=%genre%" -T "PERFORMER=%albuminterpret%" -T "COMPOSER=%composer%" %haslyrics%–tag-from-file=LYRICS="%lyricsfile%"%haslyrics% -T "ALBUMARTIST=%albumartist%" -T "DISCNUMBER=%cdnumber%" -T "TOTALDISCS=%totalcds%" -T "TOTALTRACKS=%numtracks%" -T "COMMENT=%comment%" %source% -o %dest%

TOC of the extracted CD

Track | Start | Length | Start sector | End sector
––––––––––––––––––––––––––––-
1 | 0:00.00 | 15:13.38 | 0 | 68512
2 | 15:13.38 | 15:09.47 | 68513 | 136734
3 | 30:23.10 | 13:06.51 | 136735 | 195735
4 | 43:29.61 | 9:01.20 | 195736 | 236330
5 | 52:31.06 | 11:22.01 | 236331 | 287481

Track 1

Filename C:tmp0_RIPS1 – My Funny Valentine.wav

Pre-gap length 0:00:02.00

Peak level 84.1 %
Extraction speed 10.1 X
Track quality 100.0 %
Test CRC 2BDE37B6
Copy CRC 2BDE37B6
Accurately ripped (confidence 16) [5852EF3D] (AR v2)
Copy OK

Track 2

Filename C:tmp0_RIPS2 – All Of You.wav

Pre-gap length 0:00:02.56

Peak level 74.2 %
Extraction speed 12.9 X
Track quality 100.0 %
Test CRC E5B39AB9
Copy CRC E5B39AB9
Accurately ripped (confidence 16) [6528CAF5] (AR v2)
Copy OK

Track 3

Filename C:tmp0_RIPS3 – Stella By Starlight.wav

Pre-gap length 0:00:04.74

Peak level 98.7 %
Extraction speed 14.9 X
Track quality 100.0 %
Test CRC 779AF297
Copy CRC 779AF297
Accurately ripped (confidence 16) [5B9F07F3] (AR v2)
Copy OK

Track 4

Filename C:tmp0_RIPS4 – All Blues.wav

Pre-gap length 0:00:03.17

Peak level 96.2 %
Extraction speed 16.1 X
Track quality 100.0 %
Test CRC C004A109
Copy CRC C004A109
Accurately ripped (confidence 16) [EDE18DAD] (AR v2)
Copy OK

Track 5

Filename C:tmp0_RIPS5 – I Thought About You.wav

Pre-gap length 0:00:02.89

Peak level 98.9 %
Extraction speed 9.3 X
Track quality 100.0 %
Test CRC 2C8CBBB0
Copy CRC 2C8CBBB0
Accurately ripped (confidence 16) [431F6B92] (AR v2)
Copy OK

All tracks accurately ripped

No errors occurred

End of status report

–– CUETools DB Plugin V2.1.6

[CTDB TOCID: F1lwsdsCX9AmbYSpygHBdkOjj0I-] found
Submit result: F1lwsdsCX9AmbYSpygHBdkOjj0I- has been confirmed
Track | CTDB Status
1 | (16/16) Accurately ripped
2 | (16/16) Accurately ripped
3 | (15/16) Accurately ripped
4 | (16/16) Accurately ripped
5 | (16/16) Accurately ripped

==== Log checksum 3DEE151640CDE856B591C67BA2AB2CF111DCA7B768CCF3521E8105A3D0613048 ====

DR log
foobar2000 1.2 / Dynamic Range Meter 1.1.1
log date: 2017-07-17 02:20:29

––––––––––––––––––––––––––––––––––––––––
Analyzed: Miles Davis / My Funny Valentine: Miles Davis in Concert
––––––––––––––––––––––––––––––––––––––––

DR Peak RMS Duration Track
––––––––––––––––––––––––––––––––––––––––
DR12 -1.50 dB -18.44 dB 15:14 01-My Funny Valentine
DR13 -2.58 dB -19.00 dB 15:10 02-All of You
DR12 -0.11 dB -16.03 dB 13:07 03-Stella by Starlight
DR12 -0.34 dB -15.06 dB 9:01 04-All Blues
DR12 -0.09 dB -16.38 dB 11:22 05-I Thought About You
––––––––––––––––––––––––––––––––––––––––

Number of tracks: 5
Official DR value: DR12

Samplerate: 44100 Hz
Channels: 2
Bits per sample: 16
Bitrate: 770 kbps
Codec: FLAC
================================================================================

Miles Davis - My Funny Valentine (1965) [MFSL Remastered 2014] Audio CD Layer

Miles Davis - My Funny Valentine (1965) [MFSL Remastered 2014] Audio CD Layer

All thanks to original releaser – mclarenspy

More interesting music in My Blog

Miles Davis – Kind Of Blue (1959) [2010 2CD Edition with Two Bonus Albums]

Miles Davis ‎– ‘Four’ & More: Recorded Live In Concert (1964) Japanese Press 1990

Miles Davis – Miles In The Sky (1968) Japanese Reissue 1991

Miles Davis – Bitches Brew (1970) 2CD Remastered Reissue 2013

Miles Davis – Live-Evil (1971) 2 CDs, Japanese Press 1987

Miles Davis – Get Up With It (1974) 2CD [Japanese Reissue 1996]

Miles Davis – The Real… Miles Davis, The Ultimate Collection (2011) 3 CDs

Miles Davis – Nefertiti (1967) [MFSL Remastered 2015]

Miles Davis – Filles de Kilimanjaro (1968) [MFSL Remastered 2015]

Miles Davis – My Funny Valentine (1965) [MFSL Remastered 2014] Audio CD Layer Download, Warez, DDL, Free, Full Album, Torrent, Legal.

Download