Miles Davis – Miles Deep (2016) {Rolling Stone}

Download
Miles Davis - Miles Deep (2016) {Rolling Stone}

Miles Davis – Miles Deep (2016)
EAC Rip | FLAC (tracks+.cue, log) | Covers | 370 mb | MP3 CBR 320kbps | RAR | 125 mb
Jazz, Cool Jazz, Bebop | Label:

Miles Davis published more than 40 albums during his lifetime. The classics "Kind Of Blue", "Sketches Of Spain" and "Bitches Brew" should have even less jazz-interested listeners in their collection. "Miles Deep" now approaches the big man’s work on sidewalks: through fantastic live versions and less well-known studios.

Tracklist:

01. Round Midnight (Live At Newport 1955)
02. The Maids Of Cadiz
03. Fran Dance (Alternate Take)
04. Stella By Starlight (Live At Newport 1966)
05. In A Silent Way (Rehearsal)
06. Take It Or Leave It
07. Willie Nelson (Take 2)
08. Sanctuary (Live At Fillmore East, June 19, 1970)
09. It’s About That Time (Live At The Cellar Door)

Miles Davis - Miles Deep (2016) {Rolling Stone}

Issued in a cardboard sleeve with the magazine Rolling Stone (Germany) 4/2016.

EAC log
Exact Audio Copy V1.1 from 23. June 2015

EAC extraction logfile from 10. February 2017, 18:50

Miles Davis / Rolling Stone Exclusive – Miles Deep

Used drive : Optiarc DVD RW AD-7940H Adapter: 1 ID: 0

Read mode : Secure
Utilize accurate stream : Yes
Defeat audio cache : Yes
Make use of C2 pointers : No

Read offset correction : 48
Overread into Lead-In and Lead-Out : No
Fill up missing offset samples with silence : Yes
Delete leading and trailing silent blocks : No
Null samples used in CRC calculations : Yes
Used interface : Native Win32 interface for Win NT & 2000
Gap handling : Appended to previous track

Used output format : User Defined Encoder
Selected bitrate : 1024 kBit/s
Quality : High
Add ID3 tag : No
Command line compressor : C:Program FilesExact Audio CopyFlacflac.exe
Additional command line options : -8 -e -V -T "ARTIST=%artist%" -T "TITLE=%title%" -T "ALBUM=%albumtitle%" -T "DATE=%year%" -T "TRACKNUMBER=%tracknr%" -T "GENRE=%genre%" -T "PERFORMER=%albuminterpret%" -T "COMPOSER=%composer%" %haslyrics%–tag-from-file=LYRICS="%lyricsfile%"%haslyrics% -T "ALBUMARTIST=%albumartist%" -T "DISCNUMBER=%cdnumber%" -T "TOTALDISCS=%totalcds%" -T "TOTALTRACKS=%numtracks%" -T "COMMENT=%comment%" %source% -o %dest%

TOC of the extracted CD

Track | Start | Length | Start sector | End sector
––––––––––––––––––––––––––––-
1 | 0:00.00 | 6:00.64 | 0 | 27063
2 | 6:00.64 | 3:48.50 | 27064 | 44213
3 | 9:49.39 | 5:49.46 | 44214 | 70434
4 | 15:39.10 | 7:58.72 | 70435 | 106356
5 | 23:38.07 | 5:23.60 | 106357 | 130641
6 | 29:01.67 | 2:14.62 | 130642 | 140753
7 | 31:16.54 | 6:43.09 | 140754 | 170987
8 | 37:59.63 | 3:26.44 | 170988 | 186481
9 | 41:26.32 | 7:49.20 | 186482 | 221676

Track 1

Filename Z:homeencondingFLACMiles Davis – Rolling Stone Exclusive – Miles Deep (2016)1 – Round Midnight (Live At Newport 1955).wav

Pre-gap length 0:00:02.00

Peak level 77.5 %
Extraction speed 1.1 X
Track quality 99.9 %
Test CRC 7296F960
Copy CRC 7296F960
Accurately ripped (confidence 18) [77498503] (AR v2)
Copy OK

Track 2

Filename Z:homeencondingFLACMiles Davis – Rolling Stone Exclusive – Miles Deep (2016)2 – The Maids Of Cadiz.wav

Peak level 82.1 %
Extraction speed 1.3 X
Track quality 100.0 %
Test CRC E3F46B4A
Copy CRC E3F46B4A
Accurately ripped (confidence 18) [E999A4A3] (AR v2)
Copy OK

Track 3

Filename Z:homeencondingFLACMiles Davis – Rolling Stone Exclusive – Miles Deep (2016)3 – Fran Dance (Alternate Take).wav

Peak level 89.3 %
Extraction speed 1.4 X
Track quality 99.9 %
Test CRC F5964253
Copy CRC F5964253
Accurately ripped (confidence 18) [E284AAAC] (AR v2)
Copy OK

Track 4

Filename Z:homeencondingFLACMiles Davis – Rolling Stone Exclusive – Miles Deep (2016)4 – Stella By Starlight (Live At Newport 1966).wav

Peak level 84.9 %
Extraction speed 1.7 X
Track quality 100.0 %
Test CRC 9A95AB28
Copy CRC 9A95AB28
Accurately ripped (confidence 18) [59F8FB96] (AR v2)
Copy OK

Track 5

Filename Z:homeencondingFLACMiles Davis – Rolling Stone Exclusive – Miles Deep (2016)5 – In A Silent Way (Rehearsal).wav

Peak level 58.0 %
Extraction speed 1.9 X
Track quality 100.0 %
Test CRC 417AD8C3
Copy CRC 417AD8C3
Accurately ripped (confidence 18) [B35E42AF] (AR v2)
Copy OK

Track 6

Filename Z:homeencondingFLACMiles Davis – Rolling Stone Exclusive – Miles Deep (2016)6 – Take It Or Leave It.wav

Peak level 87.0 %
Extraction speed 1.7 X
Track quality 100.0 %
Test CRC 58A73AEC
Copy CRC 58A73AEC
Accurately ripped (confidence 18) [D449C7D5] (AR v2)
Copy OK

Track 7

Filename Z:homeencondingFLACMiles Davis – Rolling Stone Exclusive – Miles Deep (2016)7 – Willie Nelson (Take 2).wav

Peak level 100.0 %
Extraction speed 2.1 X
Track quality 100.0 %
Test CRC 42CD72F2
Copy CRC 42CD72F2
Accurately ripped (confidence 18) [0C1A6BAD] (AR v2)
Copy OK

Track 8

Filename Z:homeencondingFLACMiles Davis – Rolling Stone Exclusive – Miles Deep (2016)8 – Sanctuary (Live At Fillmore East, June 19, 1970).wav

Peak level 85.6 %
Extraction speed 2.0 X
Track quality 100.0 %
Test CRC B137E47F
Copy CRC B137E47F
Accurately ripped (confidence 18) [BB83B597] (AR v2)
Copy OK

Track 9

Filename Z:homeencondingFLACMiles Davis – Rolling Stone Exclusive – Miles Deep (2016)9 – It’s About That Time (Live At The Cellar Door).wav

Peak level 98.8 %
Extraction speed 2.3 X
Track quality 100.0 %
Test CRC 56C83FD7
Copy CRC 56C83FD7
Accurately ripped (confidence 18) [4850B477] (AR v2)
Copy OK

All tracks accurately ripped

No errors occurred

End of status report

==== Log checksum 9C3C201894E83CB317790B66D12223FBB8532C56DA797AD452894EF582E893CA ====

Thanks to the Original customer.

Miles Davis – Miles Deep (2016) {Rolling Stone} Download, Warez, DDL, Free, Full Album, Torrent, Legal.

Download