Miles Davis – Miles At The Fillmore – Miles Davis 1970: The Bootleg Series Vol. 3 (2014) {4CD Set Columbia-Sony Music} | ViralVideoPk

Daily Dose of Free Downloads

Miles Davis – Miles At The Fillmore – Miles Davis 1970: The Bootleg Series Vol. 3 (2014) {4CD Set Columbia-Sony Music}

Download

Miles Davis - Miles At The Fillmore - Miles Davis 1970: The Bootleg Series Vol. 3 (2014) {4CD Set Columbia-Sony Music}

Miles Davis – Miles At The Fillmore – Miles Davis 1970: The Bootleg Series Vol. 3 (2014) {4CD Set Columbia-Sony Music}
EAC rip (secure mode) | FLAC (tracks)+CUE+LOG -> 1.44 Gb | MP3 @320 -> 592 Mb
Full Artwork @ 600 dpi (png) -> 1.17 Gb | 5% repair rar
© 1970, 2014 Columbia / Legacy / Sony Music | 88765433812
Jazz / Jazz Funk / Fusion / Trumpet

Until now, the official recordings of Miles Davis’ performances at the Fillmore East between June 17 and 20, 1970 have been limited to the double album Miles at the Fillmore. That set’s producer Teo Macero, edited the recordings to create medleys of each night’s music to four roughly 20-minute selections. This four-disc set contains all four concerts. There are 100 minutes of previously unreleased music from Wednesday through Saturday; an additional 35 minutes of unreleased music comes from a previous gig at the Fillmore West.

Miles Davis - Miles At The Fillmore - Miles Davis 1970: The Bootleg Series Vol. 3 (2014) {4CD Set Columbia-Sony Music}

On the FE shows,Davis’ band opened for Laura Nyro. Bill Graham regularly booked jazz artists to play with rock and pop acts. At the time, Davis was actively courting the younger audience – aided not only by Graham, but by FM DJs playing the just-released Bitches Brew. The band – saxophonist Steve Grossman, Dave Holland on electric bass, drummer Jack DeJohnette, percussionist Airto Moreira, Chick Corea on electric piano, and Keith Jarrett on organ – was loud and driving, its sound was drenched in wah-wah pedals; distortion was employed often. These dates are also historically significant because both keyboardists played in the group simultaneously for only three months.

Miles Davis - Miles At The Fillmore - Miles Davis 1970: The Bootleg Series Vol. 3 (2014) {4CD Set Columbia-Sony Music}

The program for each evening was basically the same: "Directions," "The Mask," "It’s About That Time," "Bitches Brew," and "The Theme." But each disc offers a different bonus: an encore, an unexpected performance, or the added tracks from the Fillmore West gig. The charts are loose but focused, and the group’s improvisational dynamic is breathtaking, entirely different each night. Davis is exceptionally strong. His playing is inventive, full of questions and muscular statements. Some notable solos occur on Wednesday’s "It’s About That Time," the Fillmore West’s "Footprints" and "Paraphernalia," and the searing intensity displayed on "Directions," from Friday. Grossman’s soprano playing is stunning on each version of "Bitches Brew"; his bluesy tenor playing is at its best on Thursday’s "Spanish Key." Individually and collectively, DeJohnette and Holland add an extreme funkiness to the band’s bottom.

Miles Davis - Miles At The Fillmore - Miles Davis 1970: The Bootleg Series Vol. 3 (2014) {4CD Set Columbia-Sony Music}

Their interplay is canny, full of nasty grooves – check Thursday’s "The Mask," or the throbbing pulse and roiling breaks on Friday’s "Directions." Jarrett’s colors, textures and stabs, add an entirely different dimension to the band’s attack. Check the sinister vamping and spooky soloing on "Miles Runs the Voodoo Down" from the Fillmore West. Corea is alternately knotty and atmospheric. He can push the horns hard –as on Thursday’s "Directions" – or paint through Jarrett’s wah-wah organ with an expressionist brush – evidenced by Saturday’s "Willie Nelson."

Miles Davis - Miles At The Fillmore - Miles Davis 1970: The Bootleg Series Vol. 3 (2014) {4CD Set Columbia-Sony Music}

Throughout his solos are risky and exploratory. Airto’s vocal and percussion arsenal is wildly different, not only from tune to tune, but night to night. The sound on this box is fantastic: balanced and detailed. The set includes a 28-page booklet with an essay by Michael Cuscuna and producer’s notes with Richard Seidel, along with rare photographs and a poster. Miles at the Fillmore – Miles Davis 1970: The Bootleg Series, Vol. 3 is an essential addition to the Davis canon.

Miles Davis - Miles At The Fillmore - Miles Davis 1970: The Bootleg Series Vol. 3 (2014) {4CD Set Columbia-Sony Music}

Miles Davis - Miles At The Fillmore - Miles Davis 1970: The Bootleg Series Vol. 3 (2014) {4CD Set Columbia-Sony Music}

All About Jazz INFO
MD INFO
Pitchfork INFO

Personnel:
Miles Davis: trumpet
Steve Grossman: tenor and soprano saxophones
Chick Corea: electric piano
Keith Jarrett: organ and tambourine (CD1#1-6, CD2, CD3#1-7, CD4)
Dave Holland: bass
Jack DeJohnette: drums
Airto Moreira: percussion, flute (CD1#1-6, CD2, CD3#1-7, CD4), vocal (CD1#1-6, CD2, CD3#1-7, CD4)

tracklist:
Disc One:
Fillmore East, June 17, 1970

01. Introduction by Bill Graham
02. Directions (Joe Zawinul)
03. The Mask (Miles Davis)
04. It’s About That Time (Miles Davis)
05. Bitches Brew (Miles Davis)
06. The Theme (Miles Davis)
BONUS TRACKS:
Fillmore West, April 11, 1970

07. Paraphernalia (Wayne Shorter)
08. Footprints (Wayne Shorter)

Miles Davis - Miles At The Fillmore - Miles Davis 1970: The Bootleg Series Vol. 3 (2014) {4CD Set Columbia-Sony Music}

Disc Two:
Fillmore East, June 18, 1970

01. Directions (Joe Zawinul)
02. The Mask (Miles Davis)
03. It’s About That Time (Miles Davis)
04. Bitches Brew (Miles Davis)
05. The Theme (Miles Davis)
06. Spanish Key (Encore) (Miles Davis)
07. The Theme (Miles Davis)

Disc Three:
Fillmore East, June 19, 1970

01. Directions (Joe Zawinul)
02. The Mask (Miles Davis)
03. It’s About That Time (Miles Davis)
04. I Fall In Love Too Easily (Sammy Cahn-Jule Styne)
05. Sanctuary (Wayne Shorter)
06. Bitches Brew (Miles Davis)
07. The Theme (Miles Davis)
BONUS TRACK:
Fillmore West, April 11 1970:

08. Miles Runs the Voodoo Down

Miles Davis - Miles At The Fillmore - Miles Davis 1970: The Bootleg Series Vol. 3 (2014) {4CD Set Columbia-Sony Music}

Disc Four:
Fillmore East, June 20, 1970

01. Directions (Joe Zawinul)
02. The Mask (Miles Davis)
03. It’s About That Time (Miles Davis)
04. I Fall In Love Too Easily (Sammy Cahn-Jule Styne)
05. Sanctuary (Wayne Shorter)
06. Bitches Brew (Miles Davis)
07. Willie Nelson (Miles Davis)
08. The Theme (Miles Davis)

EAC log CD1
Exact Audio Copy V1.1 from 23. June 2015

EAC extraction logfile from 2. December 2016, 0:48

Miles Davis / Miles At The Fillmore – Miles Davis 1970: The Bootleg Series Vol. 3 (CD1)

Used drive : HL-DT-STDVDRAM GP50NW41 Adapter: 1 ID: 0

Read mode : Secure
Utilize accurate stream : Yes
Defeat audio cache : Yes
Make use of C2 pointers : No

Read offset correction : 6
Overread into Lead-In and Lead-Out : No
Fill up missing offset samples with silence : Yes
Delete leading and trailing silent blocks : No
Null samples used in CRC calculations : Yes
Used interface : Native Win32 interface for Win NT & 2000
Gap handling : Appended to previous track

Used output format : User Defined Encoder
Selected bitrate : 1024 kBit/s
Quality : High
Add ID3 tag : No
Command line compressor : C:Program Files (x86)FLAC Frontendtoolsflac.exe
Additional command line options : -8 -V -T "ARTIST=%artist%" -T "TITLE=%title%" -T "ALBUM=%albumtitle%" -T "DATE=%year%" -T "TRACKNUMBER=%tracknr%" -T "TOTALTRACKS=%numtracks%" -T "GENRE=%genre%" -T "ALBUMARTIST=%albumartist%" -T "ALBUM ARTIST=%albumartist%" -T "COMMENT=EAC Secure Mode, Test & Copy, AccurateRip, FLAC -8" %source%

TOC of the extracted CD

Track | Start | Length | Start sector | End sector
––––––––––––––––––––––––––––-
1 | 0:00.00 | 0:04.55 | 0 | 354
2 | 0:04.55 | 10:23.36 | 355 | 47115
3 | 10:28.16 | 11:04.29 | 47116 | 96944
4 | 21:32.45 | 10:44.47 | 96945 | 145291
5 | 32:17.17 | 13:41.37 | 145292 | 206903
6 | 45:58.54 | 0:40.51 | 206904 | 209954
7 | 46:39.30 | 11:02.33 | 209955 | 259637
8 | 57:41.63 | 11:13.12 | 259638 | 310124

Track 1

Filename D:_EACMiles Davis – Miles At The Fillmore – Miles Davis 1970 – The Bootleg Series Vol. 3 (2014) [FLAC] {4CD Set}CD1 – Fillmore East, June 17, 19701 – Introduction [Fillmore East, June 17, 1970].wav

Pre-gap length 0:00:02.00

Peak level 36.8 %
Extraction speed 0.1 X
Track quality 100.0 %
Test CRC 64FD9919
Copy CRC 64FD9919
Track not present in AccurateRip database
Copy OK

Track 2

Filename D:_EACMiles Davis – Miles At The Fillmore – Miles Davis 1970 – The Bootleg Series Vol. 3 (2014) [FLAC] {4CD Set}CD1 – Fillmore East, June 17, 19702 – Directions [Fillmore East, June 17, 1970].wav

Peak level 95.7 %
Extraction speed 1.4 X
Track quality 99.9 %
Test CRC FEBAF571
Copy CRC FEBAF571
Accurately ripped (confidence 31) [9803FAD6] (AR v2)
Copy OK

Track 3

Filename D:_EACMiles Davis – Miles At The Fillmore – Miles Davis 1970 – The Bootleg Series Vol. 3 (2014) [FLAC] {4CD Set}CD1 – Fillmore East, June 17, 19703 – The Mask [Fillmore East, June 17, 1970].wav

Peak level 86.9 %
Extraction speed 1.8 X
Track quality 100.0 %
Test CRC DE8F5F9A
Copy CRC DE8F5F9A
Accurately ripped (confidence 31) [21564C96] (AR v2)
Copy OK

Track 4

Filename D:_EACMiles Davis – Miles At The Fillmore – Miles Davis 1970 – The Bootleg Series Vol. 3 (2014) [FLAC] {4CD Set}CD1 – Fillmore East, June 17, 19704 – It’s About That Time [Fillmore East, June 17, 1970].wav

Peak level 92.4 %
Extraction speed 2.1 X
Track quality 100.0 %
Test CRC 70088995
Copy CRC 70088995
Accurately ripped (confidence 31) [4E8CF79B] (AR v2)
Copy OK

Track 5

Filename D:_EACMiles Davis – Miles At The Fillmore – Miles Davis 1970 – The Bootleg Series Vol. 3 (2014) [FLAC] {4CD Set}CD1 – Fillmore East, June 17, 19705 – Bitches Brew [Fillmore East, June 17, 1970].wav

Peak level 93.2 %
Extraction speed 2.4 X
Track quality 100.0 %
Test CRC 0E054869
Copy CRC 0E054869
Accurately ripped (confidence 31) [FAD6B0F5] (AR v2)
Copy OK

Track 6

Filename D:_EACMiles Davis – Miles At The Fillmore – Miles Davis 1970 – The Bootleg Series Vol. 3 (2014) [FLAC] {4CD Set}CD1 – Fillmore East, June 17, 19706 – The Theme [Fillmore East, June 17, 1970].wav

Peak level 92.3 %
Extraction speed 1.4 X
Track quality 100.0 %
Test CRC 40C921FD
Copy CRC 40C921FD
Accurately ripped (confidence 31) [A43DB000] (AR v2)
Copy OK

Track 7

Filename D:_EACMiles Davis – Miles At The Fillmore – Miles Davis 1970 – The Bootleg Series Vol. 3 (2014) [FLAC] {4CD Set}CD1 – Fillmore East, June 17, 19707 – Paraphernalia [Fillmore West, April 11, 1970] (bonus track).wav

Pre-gap length 0:00:05.32

Peak level 93.7 %
Extraction speed 2.7 X
Track quality 100.0 %
Test CRC B31E1CAB
Copy CRC B31E1CAB
Accurately ripped (confidence 31) [468AD38E] (AR v2)
Copy OK

Track 8

Filename D:_EACMiles Davis – Miles At The Fillmore – Miles Davis 1970 – The Bootleg Series Vol. 3 (2014) [FLAC] {4CD Set}CD1 – Fillmore East, June 17, 19708 – Footprints [Fillmore West, April 11, 1970] (bonus track).wav

Peak level 95.3 %
Extraction speed 2.8 X
Track quality 100.0 %
Test CRC 1A6D51B9
Copy CRC 1A6D51B9
Accurately ripped (confidence 31) [A7298F3A] (AR v2)
Copy OK

7 track(s) accurately ripped
1 track(s) not present in the AccurateRip database

Some tracks could not be verified as accurate

No errors occurred

End of status report

==== Log checksum C36F9B5E501A76DED10511BDC5EB55BE6C628A202634F0DB562072BD4185EAB3 ====

EAC log CD2
Exact Audio Copy V1.1 from 23. June 2015

EAC extraction logfile from 2. December 2016, 6:52

Miles Davis / Miles At The Fillmore – Miles Davis 1970: The Bootleg Series Vol. 3 (CD2)

Used drive : HL-DT-STDVDRAM GP50NW41 Adapter: 1 ID: 0

Read mode : Secure
Utilize accurate stream : Yes
Defeat audio cache : Yes
Make use of C2 pointers : No

Read offset correction : 6
Overread into Lead-In and Lead-Out : No
Fill up missing offset samples with silence : Yes
Delete leading and trailing silent blocks : No
Null samples used in CRC calculations : Yes
Used interface : Native Win32 interface for Win NT & 2000
Gap handling : Appended to previous track

Used output format : User Defined Encoder
Selected bitrate : 1024 kBit/s
Quality : High
Add ID3 tag : No
Command line compressor : C:Program Files (x86)FLAC Frontendtoolsflac.exe
Additional command line options : -8 -V -T "ARTIST=%artist%" -T "TITLE=%title%" -T "ALBUM=%albumtitle%" -T "DATE=%year%" -T "TRACKNUMBER=%tracknr%" -T "TOTALTRACKS=%numtracks%" -T "GENRE=%genre%" -T "ALBUMARTIST=%albumartist%" -T "ALBUM ARTIST=%albumartist%" -T "COMMENT=EAC Secure Mode, Test & Copy, AccurateRip, FLAC -8" %source%

TOC of the extracted CD

Track | Start | Length | Start sector | End sector
––––––––––––––––––––––––––––-
1 | 0:00.00 | 10:10.25 | 0 | 45774
2 | 10:10.25 | 11:30.00 | 45775 | 97524
3 | 21:40.25 | 12:03.39 | 97525 | 151788
4 | 33:43.64 | 11:57.50 | 151789 | 205613
5 | 45:41.39 | 1:29.47 | 205614 | 212335
6 | 47:11.11 | 10:20.36 | 212336 | 258871
7 | 57:31.47 | 0:27.54 | 258872 | 260950

Track 1

Filename D:_EACMiles Davis – Miles At The Fillmore – Miles Davis 1970 – The Bootleg Series Vol. 3 (2014) [FLAC] {4CD Set}CD2 – Fillmore East, June 18, 19701 – Directions [Fillmore East, June 18, 1970].wav

Pre-gap length 0:00:02.00

Peak level 87.3 %
Extraction speed 1.3 X
Track quality 100.0 %
Test CRC 2E505721
Copy CRC 2E505721
Accurately ripped (confidence 106) [FE54A3B7] (AR v2)
Copy OK

Track 2

Filename D:_EACMiles Davis – Miles At The Fillmore – Miles Davis 1970 – The Bootleg Series Vol. 3 (2014) [FLAC] {4CD Set}CD2 – Fillmore East, June 18, 19702 – The Mask [Fillmore East, June 18, 1970].wav

Peak level 86.1 %
Extraction speed 1.7 X
Track quality 100.0 %
Test CRC 4097FCF8
Copy CRC 4097FCF8
Accurately ripped (confidence 106) [D04EFA08] (AR v2)
Copy OK

Track 3

Filename D:_EACMiles Davis – Miles At The Fillmore – Miles Davis 1970 – The Bootleg Series Vol. 3 (2014) [FLAC] {4CD Set}CD2 – Fillmore East, June 18, 19703 – It’s About That Time [Fillmore East, June 18, 1970].wav

Peak level 88.1 %
Extraction speed 2.0 X
Track quality 100.0 %
Test CRC 0D436CE9
Copy CRC 0D436CE9
Accurately ripped (confidence 106) [4E783F09] (AR v2)
Copy OK

Track 4

Filename D:_EACMiles Davis – Miles At The Fillmore – Miles Davis 1970 – The Bootleg Series Vol. 3 (2014) [FLAC] {4CD Set}CD2 – Fillmore East, June 18, 19704 – Bitches Brew [Fillmore East, June 18, 1970].wav

Peak level 91.8 %
Extraction speed 2.2 X
Track quality 100.0 %
Test CRC CC66EF64
Copy CRC CC66EF64
Accurately ripped (confidence 106) [B1616926] (AR v2)
Copy OK

Track 5

Filename D:_EACMiles Davis – Miles At The Fillmore – Miles Davis 1970 – The Bootleg Series Vol. 3 (2014) [FLAC] {4CD Set}CD2 – Fillmore East, June 18, 19705 – The Theme [Fillmore East, June 18, 1970].wav

Peak level 90.2 %
Extraction speed 1.4 X
Track quality 99.8 %
Test CRC 4849A0B3
Copy CRC 4849A0B3
Accurately ripped (confidence 106) [A3D7C105] (AR v2)
Copy OK

Track 6

Filename D:_EACMiles Davis – Miles At The Fillmore – Miles Davis 1970 – The Bootleg Series Vol. 3 (2014) [FLAC] {4CD Set}CD2 – Fillmore East, June 18, 19706 – Spanish Key (Encore) [Fillmore East, June 18, 1970].wav

Peak level 90.0 %
Extraction speed 2.3 X
Track quality 99.9 %
Test CRC E557C0B0
Copy CRC E557C0B0
Accurately ripped (confidence 105) [0A15EDBD] (AR v2)
Copy OK

Track 7

Filename D:_EACMiles Davis – Miles At The Fillmore – Miles Davis 1970 – The Bootleg Series Vol. 3 (2014) [FLAC] {4CD Set}CD2 – Fillmore East, June 18, 19707 – The Theme [Fillmore East, June 18, 1970].wav

Peak level 81.9 %
Extraction speed 1.1 X
Track quality 100.0 %
Test CRC 5AC561FF
Copy CRC 5AC561FF
Accurately ripped (confidence 104) [FA493838] (AR v2)
Copy OK

All tracks accurately ripped

No errors occurred

End of status report

==== Log checksum AA07C312783419F34F4F84A9546709A15EB2489B8D87E534923681576828E94E ====

EAC log CD3
Exact Audio Copy V1.1 from 23. June 2015

EAC extraction logfile from 2. December 2016, 9:00

Miles Davis / Miles At The Fillmore – Miles Davis 1970: The Bootleg Series Vol. 3 (CD3)

Used drive : HL-DT-STDVDRAM GP50NW41 Adapter: 1 ID: 0

Read mode : Secure
Utilize accurate stream : Yes
Defeat audio cache : Yes
Make use of C2 pointers : No

Read offset correction : 6
Overread into Lead-In and Lead-Out : No
Fill up missing offset samples with silence : Yes
Delete leading and trailing silent blocks : No
Null samples used in CRC calculations : Yes
Used interface : Native Win32 interface for Win NT & 2000
Gap handling : Appended to previous track

Used output format : User Defined Encoder
Selected bitrate : 1024 kBit/s
Quality : High
Add ID3 tag : No
Command line compressor : C:Program Files (x86)FLAC Frontendtoolsflac.exe
Additional command line options : -8 -V -T "ARTIST=%artist%" -T "TITLE=%title%" -T "ALBUM=%albumtitle%" -T "DATE=%year%" -T "TRACKNUMBER=%tracknr%" -T "TOTALTRACKS=%numtracks%" -T "GENRE=%genre%" -T "ALBUMARTIST=%albumartist%" -T "ALBUM ARTIST=%albumartist%" -T "COMMENT=EAC Secure Mode, Test & Copy, AccurateRip, FLAC -8" %source%

TOC of the extracted CD

Track | Start | Length | Start sector | End sector
––––––––––––––––––––––––––––-
1 | 0:00.00 | 12:50.05 | 0 | 57754
2 | 12:50.05 | 10:00.49 | 57755 | 102803
3 | 22:50.54 | 11:27.48 | 102804 | 154376
4 | 34:18.27 | 1:47.69 | 154377 | 162470
5 | 36:06.21 | 3:24.72 | 162471 | 177842
6 | 39:31.18 | 12:38.01 | 177843 | 234693
7 | 52:09.19 | 0:44.01 | 234694 | 237994
8 | 52:53.20 | 13:20.66 | 237995 | 298060

Track 1

Filename D:_EACMiles Davis – Miles At The Fillmore – Miles Davis 1970 – The Bootleg Series Vol. 3 (2014) [FLAC] {4CD Set}CD3 – Fillmore East, June 19, 19701 – Directions [Fillmore East, June 19, 1970].wav

Pre-gap length 0:00:02.00

Peak level 91.7 %
Extraction speed 3.5 X
Track quality 100.0 %
Test CRC 8850156E
Copy CRC 8850156E
Accurately ripped (confidence 104) [3184F4C7] (AR v2)
Copy OK

Track 2

Filename D:_EACMiles Davis – Miles At The Fillmore – Miles Davis 1970 – The Bootleg Series Vol. 3 (2014) [FLAC] {4CD Set}CD3 – Fillmore East, June 19, 19702 – The Mask [Fillmore East, June 19, 1970].wav

Peak level 73.6 %
Extraction speed 4.2 X
Track quality 100.0 %
Test CRC 4EB9D46D
Copy CRC 4EB9D46D
Accurately ripped (confidence 104) [F50DBAC4] (AR v2)
Copy OK

Track 3

Filename D:_EACMiles Davis – Miles At The Fillmore – Miles Davis 1970 – The Bootleg Series Vol. 3 (2014) [FLAC] {4CD Set}CD3 – Fillmore East, June 19, 19703 – It’s About That Time [Fillmore East, June 19, 1970].wav

Peak level 90.6 %
Extraction speed 4.8 X
Track quality 100.0 %
Test CRC C4520400
Copy CRC C4520400
Accurately ripped (confidence 104) [13C572AF] (AR v2)
Copy OK

Track 4

Filename D:_EACMiles Davis – Miles At The Fillmore – Miles Davis 1970 – The Bootleg Series Vol. 3 (2014) [FLAC] {4CD Set}CD3 – Fillmore East, June 19, 19704 – I Fall in Love Too Easily [Fillmore East, June 19, 1970].wav

Peak level 50.6 %
Extraction speed 3.9 X
Track quality 100.0 %
Test CRC B3DB2EE7
Copy CRC B3DB2EE7
Accurately ripped (confidence 104) [C25AA8F0] (AR v2)
Copy OK

Track 5

Filename D:_EACMiles Davis – Miles At The Fillmore – Miles Davis 1970 – The Bootleg Series Vol. 3 (2014) [FLAC] {4CD Set}CD3 – Fillmore East, June 19, 19705 – Sanctuary [Fillmore East, June 19, 1970].wav

Peak level 85.6 %
Extraction speed 4.7 X
Track quality 100.0 %
Test CRC 451FD3E7
Copy CRC 451FD3E7
Accurately ripped (confidence 104) [4B6BC396] (AR v2)
Copy OK

Track 6

Filename D:_EACMiles Davis – Miles At The Fillmore – Miles Davis 1970 – The Bootleg Series Vol. 3 (2014) [FLAC] {4CD Set}CD3 – Fillmore East, June 19, 19706 – Bitches Brew [Fillmore East, June 19, 1970].wav

Peak level 84.8 %
Extraction speed 5.6 X
Track quality 100.0 %
Test CRC 524F1D50
Copy CRC 524F1D50
Accurately ripped (confidence 102) [6730166E] (AR v2)
Copy OK

Track 7

Filename D:_EACMiles Davis – Miles At The Fillmore – Miles Davis 1970 – The Bootleg Series Vol. 3 (2014) [FLAC] {4CD Set}CD3 – Fillmore East, June 19, 19707 – The Theme [Fillmore East, June 19, 1970].wav

Peak level 82.9 %
Extraction speed 3.3 X
Track quality 100.0 %
Test CRC C267E432
Copy CRC C267E432
Accurately ripped (confidence 104) [832F8294] (AR v2)
Copy OK

Track 8

Filename D:_EACMiles Davis – Miles At The Fillmore – Miles Davis 1970 – The Bootleg Series Vol. 3 (2014) [FLAC] {4CD Set}CD3 – Fillmore East, June 19, 19708 – Miles Runs The Voodoo Down [Fillmore West, April 11, 1970] (bonus track).wav

Pre-gap length 0:00:05.32

Peak level 90.6 %
Extraction speed 6.2 X
Track quality 100.0 %
Test CRC 5F386048
Copy CRC 5F386048
Accurately ripped (confidence 98) [01B3B479] (AR v2)
Copy OK

All tracks accurately ripped

No errors occurred

End of status report

==== Log checksum 112F724921B71955D37AA7BD433E0D14835630CB800A63987848CB7C2F8B6802 ====

EAC log CD4
Exact Audio Copy V1.1 from 23. June 2015

EAC extraction logfile from 2. December 2016, 12:04

Miles Davis / Miles At The Fillmore – Miles Davis 1970: The Bootleg Series Vol. 3 (CD4)

Used drive : HL-DT-STDVDRAM GP50NW41 Adapter: 1 ID: 0

Read mode : Secure
Utilize accurate stream : Yes
Defeat audio cache : Yes
Make use of C2 pointers : No

Read offset correction : 6
Overread into Lead-In and Lead-Out : No
Fill up missing offset samples with silence : Yes
Delete leading and trailing silent blocks : No
Null samples used in CRC calculations : Yes
Used interface : Native Win32 interface for Win NT & 2000
Gap handling : Appended to previous track

Used output format : User Defined Encoder
Selected bitrate : 1024 kBit/s
Quality : High
Add ID3 tag : No
Command line compressor : C:Program Files (x86)FLAC Frontendtoolsflac.exe
Additional command line options : -8 -V -T "ARTIST=%artist%" -T "TITLE=%title%" -T "ALBUM=%albumtitle%" -T "DATE=%year%" -T "TRACKNUMBER=%tracknr%" -T "TOTALTRACKS=%numtracks%" -T "GENRE=%genre%" -T "ALBUMARTIST=%albumartist%" -T "ALBUM ARTIST=%albumartist%" -T "COMMENT=EAC Secure Mode, Test & Copy, AccurateRip, FLAC -8" %source%

TOC of the extracted CD

Track | Start | Length | Start sector | End sector
––––––––––––––––––––––––––––-
1 | 0:00.00 | 10:48.41 | 0 | 48640
2 | 10:48.41 | 11:14.69 | 48641 | 99259
3 | 22:03.35 | 11:03.40 | 99260 | 149024
4 | 33:07.00 | 1:20.74 | 149025 | 155098
5 | 34:27.74 | 3:21.00 | 155099 | 170173
6 | 37:48.74 | 9:39.41 | 170174 | 213639
7 | 47:28.40 | 9:21.18 | 213640 | 255732
8 | 56:49.58 | 0:37.16 | 255733 | 258523

Track 1

Filename D:_EACMiles Davis – Miles At The Fillmore – Miles Davis 1970 – The Bootleg Series Vol. 3 (2014) [FLAC] {4CD Set}CD4 – Fillmore East, June 20, 19701 – Directions [Fillmore East, June 20, 1970].wav

Pre-gap length 0:00:02.00

Peak level 91.9 %
Extraction speed 1.3 X
Track quality 100.0 %
Test CRC 6B4040D3
Copy CRC 6B4040D3
Accurately ripped (confidence 102) [518D39D8] (AR v2)
Copy OK

Track 2

Filename D:_EACMiles Davis – Miles At The Fillmore – Miles Davis 1970 – The Bootleg Series Vol. 3 (2014) [FLAC] {4CD Set}CD4 – Fillmore East, June 20, 19702 – The Mask [Fillmore East, June 20, 1970].wav

Peak level 89.3 %
Extraction speed 1.6 X
Track quality 99.9 %
Test CRC 5C1A8359
Copy CRC 5C1A8359
Accurately ripped (confidence 104) [7E0327D5] (AR v2)
Copy OK

Track 3

Filename D:_EACMiles Davis – Miles At The Fillmore – Miles Davis 1970 – The Bootleg Series Vol. 3 (2014) [FLAC] {4CD Set}CD4 – Fillmore East, June 20, 19703 – It’s About That Time [Fillmore East, June 20, 1970].wav

Peak level 93.2 %
Extraction speed 2.0 X
Track quality 100.0 %
Test CRC 9AA7E0D0
Copy CRC 9AA7E0D0
Accurately ripped (confidence 104) [7FFCF03A] (AR v2)
Copy OK

Track 4

Filename D:_EACMiles Davis – Miles At The Fillmore – Miles Davis 1970 – The Bootleg Series Vol. 3 (2014) [FLAC] {4CD Set}CD4 – Fillmore East, June 20, 19704 – I Fall In Love Too Easily [Fillmore East, June 20, 1970].wav

Peak level 50.9 %
Extraction speed 1.1 X
Track quality 99.8 %
Test CRC 9B757537
Copy CRC 9B757537
Accurately ripped (confidence 104) [A9DF1EBA] (AR v2)
Copy OK

Track 5

Filename D:_EACMiles Davis – Miles At The Fillmore – Miles Davis 1970 – The Bootleg Series Vol. 3 (2014) [FLAC] {4CD Set}CD4 – Fillmore East, June 20, 19705 – Sanctuary [Fillmore East, June 20, 1970].wav

Peak level 83.8 %
Extraction speed 1.9 X
Track quality 100.0 %
Test CRC 916248AF
Copy CRC 916248AF
Accurately ripped (confidence 104) [60E81DF1] (AR v2)
Copy OK

Track 6

Filename D:_EACMiles Davis – Miles At The Fillmore – Miles Davis 1970 – The Bootleg Series Vol. 3 (2014) [FLAC] {4CD Set}CD4 – Fillmore East, June 20, 19706 – Bitches Brew [Fillmore East, June 20, 1970].wav

Peak level 93.7 %
Extraction speed 2.3 X
Track quality 100.0 %
Test CRC 35F76462
Copy CRC 35F76462
Accurately ripped (confidence 104) [A97C207A] (AR v2)
Copy OK

Track 7

Filename D:_EACMiles Davis – Miles At The Fillmore – Miles Davis 1970 – The Bootleg Series Vol. 3 (2014) [FLAC] {4CD Set}CD4 – Fillmore East, June 20, 19707 – Willie Nelson [Fillmore East, June 20, 1970].wav

Peak level 89.3 %
Extraction speed 2.5 X
Track quality 100.0 %
Test CRC 10951E03
Copy CRC 10951E03
Accurately ripped (confidence 105) [27D5CCC1] (AR v2)
Copy OK

Track 8

Filename D:_EACMiles Davis – Miles At The Fillmore – Miles Davis 1970 – The Bootleg Series Vol. 3 (2014) [FLAC] {4CD Set}CD4 – Fillmore East, June 20, 19708 – The Theme [Fillmore East, June 20, 1970].wav

Peak level 86.4 %
Extraction speed 0.9 X
Track quality 99.7 %
Test CRC 7916AFFE
Copy CRC 7916AFFE
Accurately ripped (confidence 104) [ED6A7784] (AR v2)
Copy OK

All tracks accurately ripped

No errors occurred

End of status report

==== Log checksum E48BA13FAEC185E496E65BDEB662BDA3DE8F3F2F3DD3AFB3745EDDF37BA0F89E ====

Miles Davis - Miles At The Fillmore - Miles Davis 1970: The Bootleg Series Vol. 3 (2014) {4CD Set Columbia-Sony Music}

Miles Davis - Miles At The Fillmore - Miles Davis 1970: The Bootleg Series Vol. 3 (2014) {4CD Set Columbia-Sony Music}

Miles Davis - Miles At The Fillmore - Miles Davis 1970: The Bootleg Series Vol. 3 (2014) {4CD Set Columbia-Sony Music}

see also:
Miles Davis – Miles Davis At Newport 1955-1975: The Bootleg Series Vol. 4 (2015) [4CD Set] {Columbia}
Miles Davis Quintet – Freedom Jazz Dance: The Bootleg Series, Vol. 5 (2016) {3CD Set Columbia-Legacy 88985357372}

===

Miles Davis – Miles At The Fillmore – Miles Davis 1970: The Bootleg Series Vol. 3 (2014) {4CD Set Columbia-Sony Music} Download, Warez, DDL, Free, Full Album, Torrent, Legal.

Download


  • Recent Posts

  • Recent Tags