Mike Westbrook Band – Off Abbey Road (1990) {Enja Records R2 79640}

Download
Mike Westbrook Band - Off Abbey Road (1990) {Enja Records R2 79640}

Mike Westbrook Band – Off Abbey Road (1990) {Enja Records R2 79640}
EAC rip (secure mode) | FLAC (tracks)+CUE+LOG -> 448 Mb | MP3 @320 -> 177 Mb
Full Artwork @ 600 dpi (jpg) -> 33 Mb | 5% repair rar
© 1990 Enja Records | R2 79640
Jazz / Contemporary Jazz / Progressive Jazz

"Westbrook’s faithful and wonderfully good humored rendition of The Beatles’ 1969 album ‘ABBEY ROAD’ underscores its music-hall whimsy and ravishing melodies. The Beatles purists I have played it for are as delighted as I am." Gary Giddins – Village Voice. "John Lennon, the most progressive of The Beatles, would have been delighted … a real adventure on the borderlines between pop and jazz." Manfred Schmidt – Stereo Magazine, Germany ‘CD of the Month’. A quirky marriage of rock, vaudeville and jazz improvisation… Westbrook finds unexpected depths in over familiar songs.’ Clive Davis – The Times.

The Beatles’ ‘ABBEY ROAD’ album is the basis of Mike Westbrook’s ‘OFF ABBEY ROAD’ project,- a re-creation by contemporary musicians of one of the master works of pop music. Premiered in Reggio Emilia, Italy in December 1988 as part of a Festival celebrating The Beatles, ‘OFF ABBEY ROAD’ was an instant success with audiences and critics.

From 1989-91 the Westbrook Band toured ‘OFF ABBEY ROAD’ throughout France, Germany, Italy, and Switzerland, appearing in many of the major European jazz festivals. A particular highlight was the 1990 Montreal Festival where the Band played an open-air concert to an audience of 30,000.’OFF ABBEY ROAD’ made its UK debut with two performances at the Electric Cinema in Portobello Road, London, which were filmed for German TV, Recorded ‘live’ at the 1989 Willisau Jazz Festival, the ‘OFF ABBEY ROAD’ album was released in 1990 on ENJA Record’s new TipToe label.

In 1995 ‘OFF ABBEY ROAD’ was revived specially for a Beatles Festival in Trento, Italy. During ’96 there were performances in Germany, Austria, Switzerland, Italy, Finland, France and the UK. The Mike Westbrook Band, specially formed for ‘OFF ABBEY ROAD’, brings together some of the outstanding jazz performers associated with Westbrook’s music in recent years.

Mike Westbrook Band - Off Abbey Road (1990) {Enja Records R2 79640}

Personnel:
Alan Wakeman – Sax (Baritone), Sax (Soprano)
Peter Wyman – Clarinet, Sax (Alto)
Phil Minton -Trumpet, Vocals
Kate Westbrook – Horn (Tenor), Piccolo, Vocals
Peter Fairclough – Drums
Brian Godding – Guitar
Andy Grappy – Tuba
Mike Westbrook – Piano, Arranger, Producer, Booklet Design

Track listing:

1 – Come Together, 4:51
2 – Something, 8:46
3 – Maxwell’s Silver Hammer, 3:32
4 – Oh! Darling, 4:31
5 – Ocotpus’s Garden, 4:17
6 – I Want You (She’s So Heavy), 7:57
7 – Here Comes the Sun, 6:24
8 – Because, 10:00
9 – You Never Give Me Your Money, 7:08
10 – Sun King, 2:28
11 – Mean Mr. Mustard, 2:06
12 – Polythene Pam, 1:50
13 – She Came in Through the Bathroom Window, 2:28
14 – Golden Slumbers , 3:55
15 – Carry That Weight, 1:20
16 – The End, 1:55

EAC log
Exact Audio Copy V1.0 beta 2 from 29. April 2011

EAC extraction logfile from 25. November 2012, 10:35

Mike Westbrook Band / Off Abbey Road

Used drive : Optiarc DVD RW AD-7561S Adapter: 1 ID: 0

Read mode : Secure
Utilize accurate stream : Yes
Defeat audio cache : Yes
Make use of C2 pointers : No

Read offset correction : 6
Overread into Lead-In and Lead-Out : No
Fill up missing offset samples with silence : Yes
Delete leading and trailing silent blocks : No
Null samples used in CRC calculations : Yes
Used interface : Native Win32 interface for Win NT & 2000
Gap handling : Appended to previous track

Used output format : User Defined Encoder
Selected bitrate : 256 kBit/s
Quality : High
Add ID3 tag : No
Command line compressor : C:Program FilesExact Audio CopyFlacflac.exe
Additional command line options : -8 -V -T "ARTIST=%artist%" -T "TITLE=%title%" -T "ALBUM=%albumtitle%" -T "DATE=%year%" -T "TRACKNUMBER=%tracknr%" -T "TOTALTRACKS=%numtracks%" -T "GENRE=%genre%" -T "ALBUMARTIST=%albumartist%" -T "ALBUM ARTIST=%albumartist%

TOC of the extracted CD

Track | Start | Length | Start sector | End sector
––––––––––––––––––––––––––––-
1 | 0:00.50 | 4:53.62 | 50 | 22086
2 | 4:54.37 | 8:50.73 | 22087 | 61909
3 | 13:45.35 | 3:40.65 | 61910 | 78474
4 | 17:26.25 | 4:39.62 | 78475 | 99461
5 | 22:06.12 | 4:24.63 | 99462 | 119324
6 | 26:31.00 | 7:56.67 | 119325 | 155091
7 | 34:27.67 | 6:39.68 | 155092 | 185084
8 | 41:07.60 | 10:00.20 | 185085 | 230104
9 | 51:08.05 | 7:08.32 | 230105 | 262236
10 | 58:16.37 | 2:27.73 | 262237 | 273334
11 | 60:44.35 | 2:06.47 | 273335 | 282831
12 | 62:51.07 | 1:50.28 | 282832 | 291109
13 | 64:41.35 | 2:51.52 | 291110 | 303986
14 | 67:33.12 | 3:55.23 | 303987 | 321634
15 | 71:28.35 | 1:20.10 | 321635 | 327644
16 | 72:48.45 | 1:55.62 | 327645 | 336331

Track 1

Filename C:torrentMike Westbrook Band – Off Abbey Road (1990) [FLAC] {Enja Records}1 – Come Together.wav

Pre-gap length 0:00:02.50

Peak level 86.6 %
Extraction speed 2.6 X
Track quality 99.9 %
Test CRC 64A9BD9E
Copy CRC 64A9BD9E
Accurately ripped (confidence 1) [143DF676] (AR v1)
Copy OK

Track 2

Filename C:torrentMike Westbrook Band – Off Abbey Road (1990) [FLAC] {Enja Records}2 – Something.wav

Peak level 84.2 %
Extraction speed 3.7 X
Track quality 100.0 %
Test CRC F25CD051
Copy CRC F25CD051
Accurately ripped (confidence 1) [DB5B0570] (AR v1)
Copy OK

Track 3

Filename C:torrentMike Westbrook Band – Off Abbey Road (1990) [FLAC] {Enja Records}3 – Maxwells’s Silver Hammer.wav

Peak level 81.8 %
Extraction speed 3.7 X
Track quality 100.0 %
Test CRC F0942D06
Copy CRC F0942D06
Accurately ripped (confidence 1) [03BBF722] (AR v1)
Copy OK

Track 4

Filename C:torrentMike Westbrook Band – Off Abbey Road (1990) [FLAC] {Enja Records}4 – Oh Darling.wav

Peak level 84.6 %
Extraction speed 3.4 X
Track quality 99.9 %
Test CRC 9B7E2348
Copy CRC 9B7E2348
Accurately ripped (confidence 1) [DF2508A1] (AR v1)
Copy OK

Track 5

Filename C:torrentMike Westbrook Band – Off Abbey Road (1990) [FLAC] {Enja Records}5 – Octopus’s Garden.wav

Peak level 67.5 %
Extraction speed 4.3 X
Track quality 100.0 %
Test CRC 98239E18
Copy CRC 98239E18
Accurately ripped (confidence 1) [1E4288D9] (AR v1)
Copy OK

Track 6

Filename C:torrentMike Westbrook Band – Off Abbey Road (1990) [FLAC] {Enja Records}6 – I Want You.wav

Peak level 84.6 %
Extraction speed 4.8 X
Track quality 100.0 %
Test CRC C77D37F3
Copy CRC C77D37F3
Accurately ripped (confidence 1) [91AA4251] (AR v1)
Copy OK

Track 7

Filename C:torrentMike Westbrook Band – Off Abbey Road (1990) [FLAC] {Enja Records}7 – Here Comes The Sun.wav

Peak level 93.4 %
Extraction speed 5.1 X
Track quality 100.0 %
Test CRC 9E2F9FFA
Copy CRC 9E2F9FFA
Accurately ripped (confidence 1) [2ED6E7FA] (AR v1)
Copy OK

Track 8

Filename C:torrentMike Westbrook Band – Off Abbey Road (1990) [FLAC] {Enja Records}8 – Because.wav

Peak level 82.6 %
Extraction speed 5.1 X
Track quality 99.9 %
Test CRC 28DA2167
Copy CRC 28DA2167
Accurately ripped (confidence 1) [DA874AD6] (AR v1)
Copy OK

Track 9

Filename C:torrentMike Westbrook Band – Off Abbey Road (1990) [FLAC] {Enja Records}9 – You Never Give Me Your Money.wav

Peak level 82.4 %
Extraction speed 5.7 X
Track quality 100.0 %
Test CRC 7438BC13
Copy CRC 7438BC13
Accurately ripped (confidence 1) [E00ECFFD] (AR v1)
Copy OK

Track 10

Filename C:torrentMike Westbrook Band – Off Abbey Road (1990) [FLAC] {Enja Records}10 – Sun King.wav

Peak level 81.8 %
Extraction speed 5.1 X
Track quality 100.0 %
Test CRC 9D1F27EC
Copy CRC 9D1F27EC
Accurately ripped (confidence 1) [7AEEAD7E] (AR v1)
Copy OK

Track 11

Filename C:torrentMike Westbrook Band – Off Abbey Road (1990) [FLAC] {Enja Records}11 – Mean Mr. Mustard.wav

Peak level 84.1 %
Extraction speed 5.0 X
Track quality 100.0 %
Test CRC CBB26150
Copy CRC CBB26150
Accurately ripped (confidence 1) [1D46A8B5] (AR v1)
Copy OK

Track 12

Filename C:torrentMike Westbrook Band – Off Abbey Road (1990) [FLAC] {Enja Records}12 – Polythene Pam.wav

Peak level 84.6 %
Extraction speed 4.9 X
Track quality 100.0 %
Test CRC ECBDEFE4
Copy CRC ECBDEFE4
Accurately ripped (confidence 1) [D2E7AFF1] (AR v1)
Copy OK

Track 13

Filename C:torrentMike Westbrook Band – Off Abbey Road (1990) [FLAC] {Enja Records}13 – She Came In Through The Bathroom Window.wav

Peak level 81.3 %
Extraction speed 5.5 X
Track quality 100.0 %
Test CRC 14377471
Copy CRC 14377471
Accurately ripped (confidence 1) [99B345E2] (AR v1)
Copy OK

Track 14

Filename C:torrentMike Westbrook Band – Off Abbey Road (1990) [FLAC] {Enja Records}14 – Golden Slumbers.wav

Peak level 70.8 %
Extraction speed 5.8 X
Track quality 100.0 %
Test CRC 4B10F787
Copy CRC 4B10F787
Accurately ripped (confidence 1) [90333946] (AR v1)
Copy OK

Track 15

Filename C:torrentMike Westbrook Band – Off Abbey Road (1990) [FLAC] {Enja Records}15 – Carry That Weight.wav

Peak level 79.9 %
Extraction speed 4.6 X
Track quality 100.0 %
Test CRC 5C309A92
Copy CRC 5C309A92
Accurately ripped (confidence 1) [154D0623] (AR v1)
Copy OK

Track 16

Filename C:torrentMike Westbrook Band – Off Abbey Road (1990) [FLAC] {Enja Records}16 – The End.wav

Peak level 84.1 %
Extraction speed 5.1 X
Track quality 100.0 %
Test CRC 2CE3F045
Copy CRC 2CE3F045
Accurately ripped (confidence 1) [1587BCCC] (AR v1)
Copy OK

All tracks accurately ripped

No errors occurred

End of status report

==== Log checksum EA92BFE289E486DBE8DFE289E1F23E086F832538F3C0CC26C00A491B7EF94573 ====

Mike Westbrook Band - Off Abbey Road (1990) {Enja Records R2 79640}

Mike Westbrook Band - Off Abbey Road (1990) {Enja Records R2 79640}

see also:
Mike Westbrook Orchestra – The Cortege (1982) {2CD Set Enja rel 1993}

===

Mike Westbrook Band – Off Abbey Road (1990) {Enja Records R2 79640} Download, Warez, DDL, Free, Full Album, Torrent, Legal.

Download