Mike Goudreau & The Boppin Blues Band – Sweet Blues (2016) | ViralVideoPk

Daily Dose of Free Downloads

Mike Goudreau & The Boppin Blues Band – Sweet Blues (2016)

Download

Mike Goudreau & The Boppin Blues Band - Sweet Blues (2016)

Mike Goudreau & The Boppin Blues Band – Sweet Blues (2016)
EAC Rip | FLAC (Img) + Cue + Log ~ 299 Mb | MP3 CBR320 ~ 104 Mb
Scans (JPG, 600 dpi) ~ 31 Mb | RAR 5% Recovery
Blues, Jazzy Blues, Swing, Rock, Soul, Gospel | Les Editions Goudreau #PMG-CD-17

Mike Goudreau & The Boppin Band present their 6th release "Sweet Blues". This album features a dynamic mix of Swing, Rock, Soul, Gospel and Jazzy Blues that they have become well known for with accolades from their peers as well as blues media and aficionados! 12 brand new original songs, all written and sung by guitarist Mike Goudreau who’s accompanied by an all star band featuring the stellar horns of tenor saxophonist Dany Roy and trumpet player and arranger Maxime St-Pierre.

Official Website | All Music

***************

Mike Goudreau & The Boppin Blues Band - Sweet Blues (2016)

Track List:

01. Bop Till You Drop [3:23]
02. Sweet Blues [3:02]
03. Get a Real Job [2:43]
04. Gonna Find Somebody Else [4:19]
05. Dues for Lou [3:14]
06. Never Been Good at Goodbyes [4:03]
07. Good Advice [4:38]
08. Since We’ve Met [4:12]
09. Last Call Blues [3:59]
10. When You’ve Got Friends [2:49]
11. Time for Messin Around [4:08]
12. Long Gone [2:56]

EAC Log
Exact Audio Copy V1.0 beta 3 from 29. August 2011

Отчёт EAC об извлечении, выполненном 18. декабря 2016, 20:53

Mike Goudreau & the Boppin Blues Band / Sweet Blues

Дисковод: ATAPI iHAS424 A Adapter: 0 ID: 0

Режим чтения : Достоверность
Использование точного потока : Да
Отключение кэша аудио : Да
Использование указателей C2 : Нет

Коррекция смещения при чтении : 6
Способность читать области Lead-in и Lead-out : Нет
Заполнение пропущенных сэмплов тишиной : Да
Удаление блоков с тишиной в начале и конце : Нет
При вычислениях CRC использовались нулевые сэмплы : Да
Интерфейс : Установленный внешний ASPI-интерфейс

Выходной формат : Пользовательский кодировщик
Выбранный битрейт : 1024 kBit/s
Качество : Высокий
Добавление ID3-тега : Нет
Утилита сжатия : C:Program FilesExact Audio CopyFLACFLAC.EXE
Дополнительные параметры : -8 -V -T "ARTIST=%artist%" -T "ALBUM=%albumtitle%" -T "DATE=%year%" -T "GENRE=%genre%" -T "COMMENT=ripped by izia1956" %source%

TOC извлечённого CD

Трек | Старт | Длительность | Начальный сектор | Конечный сектор
––––––––––––––––––––––––––––––––––-
1 | 0:00.00 | 3:23.00 | 0 | 15224
2 | 3:23.00 | 3:02.18 | 15225 | 28892
3 | 6:25.18 | 2:42.70 | 28893 | 41112
4 | 9:08.13 | 4:19.33 | 41113 | 60570
5 | 13:27.46 | 3:14.12 | 60571 | 75132
6 | 16:41.58 | 4:03.03 | 75133 | 93360
7 | 20:44.61 | 4:38.02 | 93361 | 114212
8 | 25:22.63 | 4:12.12 | 114213 | 133124
9 | 29:35.00 | 3:59.23 | 133125 | 151072
10 | 33:34.23 | 2:48.53 | 151073 | 163725
11 | 36:23.01 | 4:08.20 | 163726 | 182345
12 | 40:31.21 | 2:56.21 | 182346 | 195566

Характеристики диапазона извлечения и сообщения об ошибках

Выбранный диапазон

Имя файла D:BitCometMike Goudreau(flac)2016 – Sweet BluesMike Goudreau & the Boppin Blues Band – Sweet Blues.wav

Пиковый уровень 98.4 %
Скорость извлечения 5.3 X
Качество диапазона 99.9 %
CRC теста 14A6CDD2
CRC копии 14A6CDD2
Копирование… OK

Ошибок не произошло

AccurateRip: сводка

Трек 1 : извлечено точно (доверие 1) [ABCCC441] (AR v2)
Трек 2 : извлечено точно (доверие 1) [D67DCD8C] (AR v2)
Трек 3 : извлечено точно (доверие 1) [F2575196] (AR v2)
Трек 4 : извлечено точно (доверие 1) [1626882F] (AR v2)
Трек 5 : извлечено точно (доверие 1) [A8437129] (AR v2)
Трек 6 : извлечено точно (доверие 1) [3AAD70D6] (AR v2)
Трек 7 : извлечено точно (доверие 1) [9BC89067] (AR v2)
Трек 8 : извлечено точно (доверие 1) [11482A3B] (AR v2)
Трек 9 : извлечено точно (доверие 1) [EC6466AD] (AR v2)
Трек 10 : извлечено точно (доверие 1) [9A4937D3] (AR v2)
Трек 11 : извлечено точно (доверие 1) [C96BD04D] (AR v2)
Трек 12 : извлечено точно (доверие 1) [B304E6BA] (AR v2)

Все треки извлечены точно

Конец отчёта

==== Контрольная сумма отчёта 7F4AC19EE08EE2F5BEF11930B73693F32F2D275E77D7C846D4798EA6907A41D7 ====

DR Log
foobar2000 1.2.6 / Dynamic Range Meter 1.1.1
log date: 2016-12-27 17:45:34

––––––––––––––––––––––––––––––––––––––––
Analyzed: Mike Goudreau & the Boppin Blues Band / Sweet Blues
––––––––––––––––––––––––––––––––––––––––

DR Peak RMS Duration Track
––––––––––––––––––––––––––––––––––––––––
DR7 -0.14 dB -8.12 dB 3:23 01-Bop Till You Drop
DR7 -0.15 dB -8.12 dB 3:02 02-Sweet Blues
DR7 -0.15 dB -8.36 dB 2:43 03-Get a Real Job
DR6 -0.15 dB -7.81 dB 4:19 04-Gonna Find Somebody Else
DR6 -0.15 dB -8.15 dB 3:14 05-Dues for Lou
DR7 -0.15 dB -8.80 dB 4:03 06-Never Been Good at Goodbyes
DR6 -0.14 dB -8.09 dB 4:38 07-Good Advice
DR6 -0.15 dB -7.87 dB 4:12 08-Since We’ve Met
DR7 -0.15 dB -10.33 dB 3:59 09-Last Call Blues
DR7 -0.15 dB -8.18 dB 2:49 10-When You’ve Got Friends
DR7 -0.15 dB -8.00 dB 4:08 11-Time for Messin Around
DR7 -0.15 dB -7.79 dB 2:56 12-Long Gone
––––––––––––––––––––––––––––––––––––––––

Number of tracks: 12
Official DR value: DR7

Samplerate: 44100 Hz
Channels: 2
Bits per sample: 16
Bitrate: 916 kbps
Codec: FLAC
================================================================================

CUETools Log
[CUETools log; Date: 27.12.2016 17:45:36; Version: 2.1.5]
[CTDB TOCID: qDjbgrrrc6LGsDAEY6ZNSjRYors-] disk not present in database.
[AccurateRip ID: 001323ca-00b4b50e-8e0a2f0c] found.
Track [ CRC | V2 ] Status
01 [0c6b1c31|abccc441] (0+1/1) Accurately ripped
02 [5c3449b0|d67dcd8c] (0+1/1) Accurately ripped
03 [b5419aa1|f2575196] (0+1/1) Accurately ripped
04 [462931e9|1626882f] (0+1/1) Accurately ripped
05 [e614024d|a8437129] (0+1/1) Accurately ripped
06 [5335d911|3aad70d6] (0+1/1) Accurately ripped
07 [63efd63d|9bc89067] (0+1/1) Accurately ripped
08 [d9822001|11482a3b] (0+1/1) Accurately ripped
09 [b47d16a5|ec6466ad] (0+1/1) Accurately ripped
10 [a9bb5176|9a4937d3] (0+1/1) Accurately ripped
11 [ad1ff358|c96bd04d] (0+1/1) Accurately ripped
12 [8f9f2adc|b304e6ba] (0+1/1) Accurately ripped

Track Peak [ CRC32 ] [W/O NULL] [ LOG ]
– 98,4 [14A6CDD2] [C9BFAC5C] CRC32
01 98,4 [07A7CC8F] [7CF1A13F]
02 98,2 [937CFD86] [67B50CF8]
03 98,2 [16B85246] [EC91B184]
04 98,2 [4210B26F] [38689458]
05 98,2 [BE904AB6] [56F4F62E]
06 98,2 [C1766DBA] [8A269ADB]
07 98,3 [DA8E36B9] [065B4750]
08 98,2 [63E41B16] [07E8E46E]
09 98,2 [841D410D] [64268925]
10 98,2 [CC89EA00] [4897AB70]
11 98,3 [5C01F1E2] [9261A65F]
12 98,2 [9D2D7481] [121A9214]

Mike Goudreau & The Boppin Blues Band - Sweet Blues (2016)

Mike Goudreau & The Boppin Blues Band - Sweet Blues (2016)

All thanks go to izia1956

> Visit my blog <

Download:

Mike Goudreau & The Boppin Blues Band – Sweet Blues (2016) Download, Warez, DDL, Free, Full Album, Torrent, Legal.

Download


  • Recent Posts

  • Recent Tags