Mika Suihkonen, Ballo Della Battalia – La Gamba (2010) (Repost)

Download
Mika Suihkonen, Ballo Della Battalia - La Gamba (2010) (Repost)

Mika Suihkonen, Ballo Della Battalia – La Gamba (2010)
EAC | FLAC (image+.cue, log) | Covers Included | 68:57 | 426 MB
Genre: Classical | Label: Alba Records | Catalog: ABCD 301

This is a tremendously enjoyable disc of music for viola da gamba and continuo ensemble. It consists mainly of music by Diego Ortiz and Christopher Simpson, with one piece each from Marin Marais and Antoine Forqueray, so it spans the best part of two centuries from about 1550 to about 1750. It’s a terrific programme and exceptionally well played.
The music is very fine, being composed by four of the great masters of the instrument. What makes this disc so enjoyable, though, is the performances. Mika Suihkonen is an excellent gamba player and his ensemble match him throughout for skill, zest and obvious love of the music. The fact that the great Andrew Lawrence-King plays harp and baroque guitar in the ensemble will give some idea of it’s quality. There are vigorous ensemble pieces with some excellently judged percussion, some solo gamba movements and a wide variety of moods.

AllMusic

Mika Suihkonen, Ballo Della Battalia - La Gamba (2010) (Repost)

Track List:

Diego Ortiz (c.1510-1570)
[1] Recercada Primera
[2] Recerada Secunda
Christopher Simpson (c.1602-1669)
[3] Prelude in D major
[4] Ground in D major
[5] Prelude in A minor
[6] Ground in A minor
Diego Ortiz
[7] Recercada Quarta
[8] Recercada Ottava
Marin Marais (1656-1728)
[9] Folies d’espagne
Diego Ortiz
[10] Recercada Quinta
Christopher Simpson
[11] Prelude in G minor
[12] Ground in G major
[13] Prelude in E minor
[14] Ground in E minor
Diego Ortiz
[15] Quinta pars
[16] Recercada Tercera
Antoine Forqueray (с.1672-1745)
[17] Chaconne
Diego Ortiz
[18] Recercada Sesta
[19] Recercada Settima

Performers:
Mika Suihkonen, viola da gamba
Ballo della Battalia

EAC Log
Exact Audio Copy V1.0 beta 3 from 29. August 2011

EAC extraction logfile from 15. August 2013, 14:08

Mika Suihkonen, Ballo della Battalia / La Gamba

Used drive : HL-DT-STDVDRRW GWA-4164B Adapter: 5 ID: 0

Read mode : Secure
Utilize accurate stream : Yes
Defeat audio cache : Yes
Make use of C2 pointers : No

Read offset correction : 102
Overread into Lead-In and Lead-Out : No
Fill up missing offset samples with silence : Yes
Delete leading and trailing silent blocks : No
Null samples used in CRC calculations : Yes
Used interface : Native Win32 interface for Win NT & 2000

Used output format : User Defined Encoder
Selected bitrate : 896 kBit/s
Quality : High
Add ID3 tag : No
Command line compressor : C:Program FilesExact Audio CopyFLACFLAC.EXE
Additional command line options : -V -8 %source%

TOC of the extracted CD

Track | Start | Length | Start sector | End sector
––––––––––––––––––––––––––––-
1 | 0:00.00 | 2:11.72 | 0 | 9896
2 | 2:11.72 | 1:44.15 | 9897 | 17711
3 | 3:56.12 | 1:21.68 | 17712 | 23854
4 | 5:18.05 | 4:42.70 | 23855 | 45074
5 | 10:01.00 | 0:46.56 | 45075 | 48580
6 | 10:47.56 | 2:09.47 | 48581 | 58302
7 | 12:57.28 | 2:39.65 | 58303 | 70292
8 | 15:37.18 | 3:20.15 | 70293 | 85307
9 | 18:57.33 | 18:55.28 | 85308 | 170460
10 | 37:52.61 | 3:12.26 | 170461 | 184886
11 | 41:05.12 | 1:00.67 | 184887 | 189453
12 | 42:06.04 | 2:31.59 | 189454 | 200837
13 | 44:37.63 | 1:59.61 | 200838 | 209823
14 | 46:37.49 | 6:32.45 | 209824 | 239268
15 | 53:10.19 | 2:40.12 | 239269 | 251280
16 | 55:50.31 | 2:06.26 | 251281 | 260756
17 | 57:56.57 | 7:32.34 | 260757 | 294690
18 | 65:29.16 | 1:54.24 | 294691 | 303264
19 | 67:23.40 | 1:31.59 | 303265 | 310148

Range status and errors

Selected range

Filename C:tempLa Gamba (Mika Suihkonen, Ballo della Battalia)La Gamba.wav

Peak level 99.9 %
Extraction speed 3.1 X
Range quality 100.0 %
Test CRC F266F1BB
Copy CRC F266F1BB
Copy OK

No errors occurred

AccurateRip summary

Track 1 accurately ripped (confidence 2) [FE2A379F] (AR v2)
Track 2 not present in database
Track 3 accurately ripped (confidence 2) [09A2F067] (AR v2)
Track 4 accurately ripped (confidence 2) [46585D7F] (AR v2)
Track 5 accurately ripped (confidence 2) [3E4C02E4] (AR v2)
Track 6 accurately ripped (confidence 2) [3DEA3931] (AR v2)
Track 7 accurately ripped (confidence 2) [32066A2E] (AR v2)
Track 8 accurately ripped (confidence 2) [7010B63F] (AR v2)
Track 9 accurately ripped (confidence 2) [65B04427] (AR v2)
Track 10 accurately ripped (confidence 2) [A625EDDB] (AR v2)
Track 11 accurately ripped (confidence 2) [45F26CE6] (AR v2)
Track 12 accurately ripped (confidence 2) [780D5C9B] (AR v2)
Track 13 accurately ripped (confidence 2) [57EB9597] (AR v2)
Track 14 accurately ripped (confidence 2) [A60085A4] (AR v2)
Track 15 accurately ripped (confidence 2) [3B551798] (AR v2)
Track 16 accurately ripped (confidence 2) [DC1AF523] (AR v2)
Track 17 accurately ripped (confidence 2) [C656ECF5] (AR v2)
Track 18 accurately ripped (confidence 2) [4665B6F0] (AR v2)
Track 19 not present in database

17 track(s) accurately ripped
2 track(s) not present in the AccurateRip database

Some tracks could not be verified as accurate

End of status report

==== Log checksum D33FAFD54BAD27114B79226E04FB6642804C870617130568E24E6EE7A64A3E7C ====

CUETools Log
[CUETools log; Date: 26.07.2017 10:56:24; Version: 2.1.5]
[CTDB TOCID: 9DfWXtrZs3zyTKrYwJU_Kby0wyQ-] found.
Track | CTDB Status
1 | (2/2) Accurately ripped
2 | (2/2) Accurately ripped
3 | (2/2) Accurately ripped
4 | (2/2) Accurately ripped
5 | (2/2) Accurately ripped
6 | (2/2) Accurately ripped
7 | (2/2) Accurately ripped
8 | (2/2) Accurately ripped
9 | (2/2) Accurately ripped
10 | (2/2) Accurately ripped
11 | (2/2) Accurately ripped
12 | (2/2) Accurately ripped
13 | (2/2) Accurately ripped
14 | (2/2) Accurately ripped
15 | (2/2) Accurately ripped
16 | (2/2) Accurately ripped
17 | (2/2) Accurately ripped
18 | (2/2) Accurately ripped
19 | (2/2) Accurately ripped
[AccurateRip ID: 002d60cc-0294a33b-27102713] found.
Track [ CRC | V2 ] Status
01 [eed7bc1c|fe2a379f] (0+3/3) Accurately ripped
02 [28d59bd6|2f224f92] (0+2/2) Accurately ripped
03 [791fa408|09a2f067] (0+3/3) Accurately ripped
04 [31b42dcd|46585d7f] (0+3/3) Accurately ripped
05 [a15037a2|3e4c02e4] (0+3/3) Accurately ripped
06 [dbab8358|3dea3931] (0+3/3) Accurately ripped
07 [bdb44ef2|32066a2e] (0+3/3) Accurately ripped
08 [8e596024|7010b63f] (0+3/3) Accurately ripped
09 [ef3d8dd2|65b04427] (0+3/3) Accurately ripped
10 [3b2a7e62|a625eddb] (0+3/3) Accurately ripped
11 [6656420a|45f26ce6] (0+3/3) Accurately ripped
12 [54b085cf|780d5c9b] (0+3/3) Accurately ripped
13 [96353009|57eb9597] (0+3/3) Accurately ripped
14 [c7ad239a|a60085a4] (0+3/3) Accurately ripped
15 [1de94c9b|3b551798] (0+3/3) Accurately ripped
16 [8bf4ad0c|dc1af523] (0+3/3) Accurately ripped
17 [c96ac2a5|c656ecf5] (0+3/3) Accurately ripped
18 [0c90662a|4665b6f0] (0+3/3) Accurately ripped
19 [c29df770|3dadff98] (0+2/2) Accurately ripped

Track Peak [ CRC32 ] [W/O NULL] [ LOG ]
– 99,9 [F266F1BB] [F4CC4919] CRC32
01 99,9 [9FDE5764] [0238AC95]
02 91,5 [23CAAC1D] [40534175]
03 44,7 [FC81189C] [4763C43E]
04 99,8 [F04684AB] [436641DA]
05 32,3 [A5D43DA2] [E307DD24]
06 99,8 [B89FD3A6] [00295404]
07 90,4 [7F85110E] [9ACA757B]
08 95,9 [9D69DA24] [AB18F42B]
09 99,8 [9B443EEB] [9AC93C70]
10 99,8 [5D8585C3] [D5EA7B5B]
11 42,1 [791E4FD3] [6BAFE9FE]
12 99,8 [FCC8B904] [FC8A6647]
13 47,3 [7416DBE7] [D4BC6296]
14 98,4 [BC0FE2D2] [45A2B813]
15 96,1 [1963CA54] [CFA7A6CA]
16 99,1 [AEA6FB8E] [A1039809]
17 99,7 [EA459513] [1623FB2E]
18 99,8 [74DBD4E0] [78AF8FFD]
19 99,9 [A3780FEC] [B830405F]

Thanks to the Original ripper A-Z!

Download:

Mika Suihkonen, Ballo Della Battalia – La Gamba (2010) (Repost) Download, Warez, DDL, Free, Full Album, Torrent, Legal.

Download