Michael Jackson & Jackson 5 – The Motown Years: 50 Best Songs (2008) 3CD Box Set [Re-Up]

Download
Michael Jackson & Jackson 5 - The Motown Years: 50 Best Songs (2008) 3CD Box Set [Re-Up]

Michael Jackson & Jackson 5 – The Motown Years: 50 Best Songs (2008) 3CD Box Set
EAC | FLAC | Image (Cue&Log) ~ 1.15 Gb (incl 5%) | Mp3 (CBR320) ~ 426 Mb (incl 5%) | Scans ~ 57 Mb
Genre: R&B, Soul, Funk, Pop | Label: Motown | # 0600753115466 | Time: 02:57:05

Looking at the cover, which shows Michael and none of his four brothers, one wouldn’t get the idea that this three-disc set is two-thirds Jackson 5 material. While Michael obviously features prominently in the Jackson 5 songs on The Motown Years, he gets one disc to himself. Altogether, this box collects all the essential J5 and Michael singles and more, including ‘ABC’, ‘Never Can Say Goodbye’, ‘I Found That Girl’, ‘I Am Love’, ‘The Love You Save’, ‘Ben’, ‘Rockin’ Robin’, and ‘I Wanna Be Where You Are’. Released in the U.K., it retails for the price of a single disc and is a convenient way to scoop up a large quantity of high-quality ‘70s pop-soul.

Review by Andy Kellman, Allmusic.com

If you have been looking for a comprehensive collection of Michael’s earlier work with his brothers on the Motown label then this is it. It has every great song he recorded between 1969 and 1975.

50 songs spread over 3 discs and 2.9 hours of pure listening pleasure!
Every Jackson 5 single release is featured here from ‘I Want You Back'(1970) to ‘Skywriter'(1973). All the classic covers are included, ‘My Girl’ ‘Ain’t No Sunshine’ ‘Who’s Loving You’ ‘You’ve Got A Friend’ and ‘Never Can Say Goodbye’ all have that magic touch Michael just seemed to pocess at the tender ages of 10 to 16.

‘Got To Be There’ ‘I’ll Be There’ ‘ABC’ ‘The Love You Save’ the list is endless! One of the main reasons for buying this is the inclusion of ‘Farewell My Summer Love’ & ‘Girl You’re So Together’ which were released in the summer of 1984 to capatalise on the huge marketing potential Michael was after 2 years of ‘Thriller’. To my knowledge that album is no longer available so it was great to hear them again!

I cant praise this album enough and so it seems do thousands of others, as this album is catapulting towards No.1 as we speak. Just treat yourself and buy it to realise what a genius Michael was. Can you imagine the faces of the judges and audience of a talent show when confronted with a 10 year old Michael singing ‘Who’s Loving You’?

So regardless of how you felt about the man and all the controversy and myths that surrounded his later life you have to appreciate what a huge talent he was as a boy, the success he brought to his family and the legacy his recordings will be remembered for. This CD is a fitting tribute to a true musical legend.

Review by Simon J. Hill, Amazon.co.uk

Michael Jackson & Jackson 5 - The Motown Years: 50 Best Songs (2008) 3CD Box Set [Re-Up]

Michael Jackson at Allmusic
Michael Jackson Website
Michael Jackson at Wiki

Tracklist:

CD1:

01. ABC (03:01)
02. Never Can Say Goodbye (03:02)
03. Ready Or Not (Here I Come) (02:34)
04. Love Song (03:27)
05. Forever Came Today (06:23)
06. The Life Of The Party (02:35)
07. Doctor My Eyes (03:11)
08. All I Do Is Think Of You (03:13)
09. I Am Love (Parts 1 & 2) (07:26)
10. Darling Dear (02:38)
11. Maybe Tomorrow (04:48)
12. I Found That Girl (03:10)
13. It’s Too Late To Change The Time (04:00)
14. Lookin’ Through The Windows (03:37)
15. Who’s Lovin’ You (03:59)
16. Whatever You Got, I Want (02:56)
17. I’ll Be There (03:59)

CD2:

01. I Want You Back (02:58)
02. Dancing Machine (03:29)
03. Sugar Daddy (02:34)
04. Little Bitty Pretty One (02:48)
05. Hum Along And Dance (08:37)
06. Corner Of The Sky (03:40)
07. I’m So Happy (02:48)
08. Get It Together (02:49)
09. Goin’ Back To Indiana (03:32)
10. Skywriter (03:10)
11. The Love You Save (03:01)
12. Mama’s Pearl (03:09)
13. Touch (03:01)
14. La La (Means I Love You) (03:29)
15. It’s Great To Be Here (03:00)
16. Hallelujah Day (02:45)
17. Santa Claus Is Coming To Town (02:25)

CD3:

01. Farewell My Summer Love (03:46)
02. You’ve Got A Friend (04:56)
03. My Girl (03:11)
04. One Day In Your Life (04:20)
05. Just A Little Bit Of You (03:17)
06. Got To Be There (03:26)
07. We’ve Got A Good Thing Going (03:05)
08. Rockin’ Robin (02:35)
09. Ben (02:48)
10. I Wanna Be Where You Are (03:00)
11. Girl You’re So Together (03:11)
12. We’re Almost There (03:47)
13. Wings Of My Love (03:24)
14. Girl Don’t Take Your Love From Me (03:50)
15. Music And Me (02:40)
16. Ain’t No Sunshine (04:10)

EAC log CD1
Exact Audio Copy V1.0 beta 1 from 15. November 2010

EAC extraction logfile from 23. February 2011, 15:48

Michael Jackson & Jackson 5 / The Motown Years CD1

Used drive : HL-DT-STDVDRAM GSA-H60N Adapter: 2 ID: 0

Read mode : Secure
Utilize accurate stream : Yes
Defeat audio cache : Yes
Make use of C2 pointers : No

Read offset correction : 667
Overread into Lead-In and Lead-Out : No
Fill up missing offset samples with silence : Yes
Delete leading and trailing silent blocks : No
Null samples used in CRC calculations : Yes
Used interface : Native Win32 interface for Win NT & 2000

Used output format : Internal WAV Routines
Sample format : 44.100 Hz; 16 Bit; Stereo

TOC of the extracted CD

Track | Start | Length | Start sector | End sector
––––––––––––––––––––––––––––-
1 | 0:00.00 | 3:01.07 | 0 | 13581
2 | 3:01.07 | 3:02.55 | 13582 | 27286
3 | 6:03.62 | 2:34.24 | 27287 | 38860
4 | 8:38.11 | 3:27.17 | 38861 | 54402
5 | 12:05.28 | 6:23.07 | 54403 | 83134
6 | 18:28.35 | 2:35.35 | 83135 | 94794
7 | 21:03.70 | 3:11.38 | 94795 | 109157
8 | 24:15.33 | 3:13.50 | 109158 | 123682
9 | 27:29.08 | 7:26.62 | 123683 | 157194
10 | 34:55.70 | 2:38.29 | 157195 | 169073
11 | 37:34.24 | 4:48.08 | 169074 | 190681
12 | 42:22.32 | 3:10.51 | 190682 | 204982
13 | 45:33.08 | 4:00.32 | 204983 | 223014
14 | 49:33.40 | 3:37.68 | 223015 | 239357
15 | 53:11.33 | 3:59.24 | 239358 | 257306
16 | 57:10.57 | 2:56.65 | 257307 | 270571
17 | 60:07.47 | 3:59.41 | 270572 | 288537

Range status and errors

Selected range

Filename C:Documents and SettingsАдминистраторРабочий столRip by ALLexxess2008 Michael Jackson & Jackson 5 The Motown Years 3CD BoxCD1Michael Jackson & Jackson 5 – The Motown Years CD1.wav

Peak level 100.0 %
Extraction speed 0.2 X
Range quality 100.0 %
Test CRC 5FF1FCA3
Copy CRC 5FF1FCA3
Copy OK

No errors occurred

AccurateRip summary

Track 1 accurately ripped (confidence 2) [3F25E7BB]
Track 2 accurately ripped (confidence 2) [AFA7B57B]
Track 3 accurately ripped (confidence 2) [48790AD6]
Track 4 accurately ripped (confidence 2) [ABFA4862]
Track 5 accurately ripped (confidence 2) [8F10B15C]
Track 6 accurately ripped (confidence 2) [012A7A1D]
Track 7 accurately ripped (confidence 2) [E11E4496]
Track 8 accurately ripped (confidence 2) [0F07AD60]
Track 9 accurately ripped (confidence 2) [0951AB38]
Track 10 accurately ripped (confidence 2) [D59FF80F]
Track 11 accurately ripped (confidence 2) [BA3C35E7]
Track 12 accurately ripped (confidence 2) [87F01F12]
Track 13 accurately ripped (confidence 2) [52077135]
Track 14 accurately ripped (confidence 2) [2ECF152B]
Track 15 accurately ripped (confidence 2) [F0D81B15]
Track 16 accurately ripped (confidence 2) [B717EDCD]
Track 17 accurately ripped (confidence 2) [268441F4]

All tracks accurately ripped

End of status report

==== Log checksum 6FDF5DC6DBEFBCF26D780434867DF94D84382745504E95561257BAB4BAC32F32 ====

DR log CD1
foobar2000 1.2 / Dynamic Range Meter 1.1.1
log date: 2014-08-13 13:59:43

––––––––––––––––––––––––––––––––––––––––
Analyzed: Michael Jackson & Jackson 5 / The Motown Years CD1
––––––––––––––––––––––––––––––––––––––––

DR Peak RMS Duration Track
––––––––––––––––––––––––––––––––––––––––
DR11 -1.57 dB -13.78 dB 3:01 01-ABC
DR11 -0.05 dB -13.17 dB 3:03 02-Never Can Say Goodbye
DR8 -1.52 dB -11.75 dB 2:34 03-Ready Or Not (Here I Come)
DR12 -0.16 dB -14.41 dB 3:27 04-Love Song
DR8 -1.89 dB -12.47 dB 6:23 05-Forever Came Today
DR9 -1.59 dB -12.23 dB 2:35 06-The Life Of The Party
DR13 0.00 dB -15.45 dB 3:12 07-Doctor My Eyes
DR10 0.00 dB -13.89 dB 3:14 08-All I Do Is Think Of You
DR12 -0.01 dB -15.63 dB 7:27 09-I Am Love (Parts 1 & 2)
DR10 -1.44 dB -13.62 dB 2:38 10-Darling Dear
DR9 -0.50 dB -12.97 dB 4:48 11-Maybe Tomorrow
DR8 -2.11 dB -12.21 dB 3:11 12-I Found That Girl
DR12 -0.29 dB -13.43 dB 4:00 13-It’s Too Late To Change The Time
DR10 -0.67 dB -13.02 dB 3:38 14-Lookin’ Through The Windows
DR11 -0.09 dB -13.08 dB 3:59 15-Who’s Lovin’ You
DR9 -2.30 dB -12.99 dB 2:57 16-Whatever You Got, I Want
DR8 -0.80 dB -11.44 dB 4:00 17-I’ll Be There
––––––––––––––––––––––––––––––––––––––––

Number of tracks: 17
Official DR value: DR10

Samplerate: 44100 Hz
Channels: 2
Bits per sample: 16
Bitrate: 892 kbps
Codec: FLAC
================================================================================

EAC log CD2
Exact Audio Copy V1.0 beta 1 from 15. November 2010

EAC extraction logfile from 23. February 2011, 18:58

Michael Jackson & Jackson 5 / The Motown Years CD2

Used drive : HL-DT-STDVDRAM GSA-H60N Adapter: 2 ID: 0

Read mode : Secure
Utilize accurate stream : Yes
Defeat audio cache : Yes
Make use of C2 pointers : No

Read offset correction : 667
Overread into Lead-In and Lead-Out : No
Fill up missing offset samples with silence : Yes
Delete leading and trailing silent blocks : No
Null samples used in CRC calculations : Yes
Used interface : Native Win32 interface for Win NT & 2000

Used output format : Internal WAV Routines
Sample format : 44.100 Hz; 16 Bit; Stereo

TOC of the extracted CD

Track | Start | Length | Start sector | End sector
––––––––––––––––––––––––––––-
1 | 0:00.00 | 2:58.64 | 0 | 13413
2 | 2:58.64 | 3:29.65 | 13414 | 29153
3 | 6:28.54 | 2:33.71 | 29154 | 40699
4 | 9:02.50 | 2:48.33 | 40700 | 53332
5 | 11:51.08 | 8:37.15 | 53333 | 92122
6 | 20:28.23 | 3:40.46 | 92123 | 108668
7 | 24:08.69 | 2:48.03 | 108669 | 121271
8 | 26:56.72 | 2:49.56 | 121272 | 134002
9 | 29:46.53 | 3:32.13 | 134003 | 149915
10 | 33:18.66 | 3:10.45 | 149916 | 164210
11 | 36:29.36 | 3:01.26 | 164211 | 177811
12 | 39:30.62 | 3:09.31 | 177812 | 192017
13 | 42:40.18 | 3:01.25 | 192018 | 205617
14 | 45:41.43 | 3:29.37 | 205618 | 221329
15 | 49:11.05 | 3:00.45 | 221330 | 234874
16 | 52:11.50 | 2:45.53 | 234875 | 247302
17 | 54:57.28 | 2:25.59 | 247303 | 258236

Range status and errors

Selected range

Filename C:Documents and SettingsАдминистраторРабочий столRip by ALLexxess2008 Michael Jackson & Jackson 5 The Motown Years 3CD BoxCD2Michael Jackson & Jackson 5 – The Motown Years CD2.wav

Peak level 100.0 %
Extraction speed 0.0 X
Range quality 100.0 %
Test CRC B7B6BD57
Copy CRC B7B6BD57
Copy OK

No errors occurred

AccurateRip summary

Track 1 accurately ripped (confidence 43) [A7CC00A2]
Track 2 accurately ripped (confidence 43) [B8A23D58]
Track 3 accurately ripped (confidence 43) [741DBC84]
Track 4 accurately ripped (confidence 43) [FAE7B88B]
Track 5 accurately ripped (confidence 43) [3F519C98]
Track 6 accurately ripped (confidence 43) [00352398]
Track 7 accurately ripped (confidence 43) [8920CD90]
Track 8 accurately ripped (confidence 43) [6241D565]
Track 9 accurately ripped (confidence 43) [1BF1826B]
Track 10 accurately ripped (confidence 43) [C3A54670]
Track 11 accurately ripped (confidence 43) [ECB02E8D]
Track 12 accurately ripped (confidence 42) [102ECAEE]
Track 13 accurately ripped (confidence 42) [17FBBA42]
Track 14 accurately ripped (confidence 43) [E2440A29]
Track 15 accurately ripped (confidence 42) [CF4C1065]
Track 16 accurately ripped (confidence 43) [1ACE487D]
Track 17 accurately ripped (confidence 41) [3C661142]

All tracks accurately ripped

End of status report

==== Log checksum 9F78910A7FBC7DD531FD2A6018E0252DD100BAA8DC4B3F208CF112ADABD9080D ====

DR log CD2
foobar2000 1.2 / Dynamic Range Meter 1.1.1
log date: 2014-08-13 14:00:02

––––––––––––––––––––––––––––––––––––––––
Analyzed: Michael Jackson & Jackson 5 / The Motown Years CD2
––––––––––––––––––––––––––––––––––––––––

DR Peak RMS Duration Track
––––––––––––––––––––––––––––––––––––––––
DR10 -0.38 dB -11.68 dB 2:59 01-I Want You Back
DR12 -0.28 dB -14.32 dB 3:30 02-Dancing Machine
DR10 0.00 dB -11.81 dB 2:34 03-Sugar Daddy
DR13 -0.01 dB -14.97 dB 2:48 04-Little Bitty Pretty One
DR11 -0.76 dB -13.24 dB 8:37 05-Hum Along And Dance
DR9 -1.06 dB -12.06 dB 3:41 06-Corner Of The Sky
DR10 -0.55 dB -11.78 dB 2:48 07-I’m So Happy
DR8 -3.13 dB -12.38 dB 2:50 08-Get It Together
DR9 0.00 dB -11.16 dB 3:32 09-Goin’ Back To Indiana
DR10 -0.56 dB -12.26 dB 3:11 10-Skywriter
DR12 -0.05 dB -14.32 dB 3:01 11-The Love You Save
DR9 0.00 dB -11.53 dB 3:09 12-Mama’s Pearl
DR10 -1.08 dB -13.63 dB 3:01 13-Touch
DR11 0.00 dB -12.71 dB 3:29 14-La La (Means I Love You)
DR13 0.00 dB -14.39 dB 3:01 15-It’s Great To Be Here
DR10 -0.05 dB -11.32 dB 2:46 16-Hallelujah Day
DR8 -1.00 dB -10.36 dB 2:26 17-Santa Claus Is Coming To Town
––––––––––––––––––––––––––––––––––––––––

Number of tracks: 17
Official DR value: DR10

Samplerate: 44100 Hz
Channels: 2
Bits per sample: 16
Bitrate: 899 kbps
Codec: FLAC
================================================================================

EAC log CD3
Exact Audio Copy V1.0 beta 1 from 15. November 2010

EAC extraction logfile from 23. February 2011, 21:31

Michael Jackson & Jackson 5 / The Motown Years CD3

Used drive : HL-DT-STDVDRAM GSA-H60N Adapter: 2 ID: 0

Read mode : Secure
Utilize accurate stream : Yes
Defeat audio cache : Yes
Make use of C2 pointers : No

Read offset correction : 667
Overread into Lead-In and Lead-Out : No
Fill up missing offset samples with silence : Yes
Delete leading and trailing silent blocks : No
Null samples used in CRC calculations : Yes
Used interface : Native Win32 interface for Win NT & 2000

Used output format : Internal WAV Routines
Sample format : 44.100 Hz; 16 Bit; Stereo

TOC of the extracted CD

Track | Start | Length | Start sector | End sector
––––––––––––––––––––––––––––-
1 | 0:00.00 | 3:46.19 | 0 | 16968
2 | 3:46.19 | 4:56.21 | 16969 | 39189
3 | 8:42.40 | 3:11.40 | 39190 | 53554
4 | 11:54.05 | 4:19.73 | 53555 | 73052
5 | 16:14.03 | 3:17.23 | 73053 | 87850
6 | 19:31.26 | 3:26.07 | 87851 | 103307
7 | 22:57.33 | 3:05.05 | 103308 | 117187
8 | 26:02.38 | 2:35.25 | 117188 | 128837
9 | 28:37.63 | 2:48.41 | 128838 | 141478
10 | 31:26.29 | 3:00.03 | 141479 | 154981
11 | 34:26.32 | 3:11.69 | 154982 | 169375
12 | 37:38.26 | 3:47.50 | 169376 | 186450
13 | 41:26.01 | 3:24.05 | 186451 | 201755
14 | 44:50.06 | 3:50.21 | 201756 | 219026
15 | 48:40.27 | 2:40.49 | 219027 | 231075
16 | 51:21.01 | 4:10.41 | 231076 | 249866

Range status and errors

Selected range

Filename C:Documents and SettingsАдминистраторРабочий столRip by ALLexxess2008 Michael Jackson & Jackson 5 The Motown Years 3CD BoxCD3Michael Jackson & Jackson 5 – The Motown Years CD3.wav

Peak level 97.7 %
Extraction speed 0.1 X
Range quality 100.0 %
Test CRC A8C9F112
Copy CRC A8C9F112
Copy OK

No errors occurred

AccurateRip summary

Track 1 accurately ripped (confidence 43) [749716E8]
Track 2 accurately ripped (confidence 43) [CA6CDFC9]
Track 3 accurately ripped (confidence 43) [7E76D2C3]
Track 4 accurately ripped (confidence 43) [62B5271A]
Track 5 accurately ripped (confidence 42) [4B196A95]
Track 6 accurately ripped (confidence 43) [FB0EADAC]
Track 7 accurately ripped (confidence 42) [8D1F7A14]
Track 8 accurately ripped (confidence 43) [0DDC1B02]
Track 9 accurately ripped (confidence 44) [84D5E911]
Track 10 accurately ripped (confidence 43) [CEC89415]
Track 11 accurately ripped (confidence 42) [06E753D3]
Track 12 accurately ripped (confidence 44) [E8A80A13]
Track 13 accurately ripped (confidence 41) [D5EC728C]
Track 14 accurately ripped (confidence 41) [3DD9014D]
Track 15 accurately ripped (confidence 41) [D3B0F9C4]
Track 16 accurately ripped (confidence 39) [4084486D]

All tracks accurately ripped

End of status report

==== Log checksum C5BD5AC125284C79EE271C72918A1D65D3268035542ACDF77D17454B38A2C7F5 ====

DR log CD3
foobar2000 1.2 / Dynamic Range Meter 1.1.1
log date: 2014-08-13 14:00:20

––––––––––––––––––––––––––––––––––––––––
Analyzed: Michael Jackson & Jackson 5 / The Motown Years CD3
––––––––––––––––––––––––––––––––––––––––

DR Peak RMS Duration Track
––––––––––––––––––––––––––––––––––––––––
DR11 -0.20 dB -12.31 dB 3:46 01-Farewell My Summer Love
DR12 -0.20 dB -14.18 dB 4:56 02-You’ve Got A Friend
DR12 -0.21 dB -14.88 dB 3:12 03-My Girl
DR11 -0.46 dB -13.79 dB 4:20 04-One Day In Your Life
DR10 -0.70 dB -12.66 dB 3:17 05-Just A Little Bit Of You
DR11 -0.20 dB -13.44 dB 3:26 06-Got To Be There
DR11 -0.33 dB -14.36 dB 3:05 07-We’ve Got A Good Thing Going
DR11 -0.20 dB -12.50 dB 2:35 08-Rockin’ Robin
DR11 -0.20 dB -13.25 dB 2:49 09-Ben
DR11 -0.26 dB -13.26 dB 3:00 10-I Wanna Be Where You Are
DR12 -0.20 dB -13.42 dB 3:12 11-Girl You’re So Together
DR11 -0.51 dB -13.68 dB 3:48 12-We’re Almost There
DR13 -0.20 dB -14.84 dB 3:24 13-Wings Of My Love
DR11 -0.28 dB -12.86 dB 3:50 14-Girl Don’t Take Your Love From Me
DR11 -0.62 dB -13.65 dB 2:41 15-Music And Me
DR12 -0.20 dB -13.53 dB 4:11 16-Ain’t No Sunshine
––––––––––––––––––––––––––––––––––––––––

Number of tracks: 16
Official DR value: DR11

Samplerate: 44100 Hz
Channels: 2
Bits per sample: 16
Bitrate: 871 kbps
Codec: FLAC
================================================================================

Michael Jackson & Jackson 5 - The Motown Years: 50 Best Songs (2008) 3CD Box Set [Re-Up]

Michael Jackson & Jackson 5 - The Motown Years: 50 Best Songs (2008) 3CD Box Set [Re-Up]

All thanks to original releaser – ALLexxess

More interesting music in My Blog

Michael Jackson & Jackson 5 – The Motown Years: 50 Best Songs (2008) 3CD Box Set [Re-Up] Download, Warez, DDL, Free, Full Album, Torrent, Legal.

Download