Michael Brook – Live At The Aquarium – London Zoo 21 May 1992 (1992) (Repost)

Download
Michael Brook - Live At The Aquarium - London Zoo 21 May 1992 (1992) (Repost)

Michael Brook – Live At The Aquarium – London Zoo 21 May 1992 (1992)
EAC Rip | FLAC (image+.cue+log) – 187 MB | MP3 CBR 320 kbps (LAME 3.93) – 101 MB | Covers (10 MB) included
Genre: Progressive Electronic | RAR 3% Rec. | Label: 4AD (tad 2011 cd)

Having an album release party in the London Zoo’s Aquarium, where the emphasis would no doubt be on stillness, hush and the haunting beauty of the deep, just suits most 4AD label releases to begin with. Given that Brook is known for his mysterious, spare guitar work makes this record of the solo concert he gave there upon the appearance of Cobalt Blue all that more appropriate. Reproducing much of the content of that album but in a different running order, Aquarium consists solely of Brook, his guitar and preset synth/rhythm patterns. The result is quite fascinating; whether a listener thinks that the more stripped-down overall sound of the songs here works better as a result or prefers the generally lusher textures of the studio release must ultimately be up to individual judgment. What is beyond question is the skill Brook uses on his instrument, which, thankfully, never transforms into pointless showing off. Those used to his ‘infinite guitar’ sounds thanks to the likes of U2 might well be surprised at the understated serenity of the performance. Even the most specifically Edge-sounding number, "Ultramarine," sounds more like a calm run-through of one of the Irish musician’s pieces instead of a full-on rock-out. The medley of "After Image/Urbana" is an excellent all-around showcase. The first song consists of low E-bow-tinged guitar lines, quite relaxed and soothing all around, while the second is initially all down to just soft strums and a buried rhythm loop. When the song’s main melody begins, Brook’s performance is at once heartwrenching and soaring, then further supplemented by the increased rhythm punch from his keyboard set-up. If one standout has to be selected, the majestic version of "Lakbossa" is the clear winner. Brook’s utterly compelling work is simply jawdropping, tender and as big as all outdoors at once.

Tracklist:
01. Shona Bridge
02. After Image/Urbana
03. Andean
04. Ultramarine
05. Lakbossa
06. Cascade
07. Red Shift

Total time: 37:56

EAC log
Exact Audio Copy V0.99 prebeta 3 from 28. July 2007

EAC extraction logfile from 21. November 2009, 2:47

Michael Brook / Live At The Aquarium

Used drive : HL-DT-STDVDRAM GSA-T10N Adapter: 1 ID: 0

Read mode : Secure
Utilize accurate stream : Yes
Defeat audio cache : Yes
Make use of C2 pointers : No

Read offset correction : 667
Overread into Lead-In and Lead-Out : No
Fill up missing offset samples with silence : Yes
Delete leading and trailing silent blocks : No
Null samples used in CRC calculations : Yes
Used interface : Native Win32 interface for Win NT & 2000

Used output format : User Defined Encoder
Selected bitrate : 128 kBit/s
Quality : High
Add ID3 tag : No
Command line compressor : C:Program FilesExact Audio CopyFlacflac.exe
Additional command line options : -8 -V %s

TOC of the extracted CD

Track | Start | Length | Start sector | End sector
––––––––––––––––––––––––––––-
1 | 0:00.50 | 5:10.00 | 50 | 23299
2 | 5:10.50 | 9:53.72 | 23300 | 67846
3 | 15:04.47 | 2:11.33 | 67847 | 77704
4 | 17:16.05 | 5:22.57 | 77705 | 101911
5 | 22:38.62 | 6:12.40 | 101912 | 129851
6 | 28:51.27 | 3:13.50 | 129852 | 144376
7 | 32:05.02 | 5:50.48 | 144377 | 170674

Range status and errors

Selected range

Filename H:MUSICCCH раздачи музыки на torrentsMichael Brook – Live At The AquariumMichael Brook – Live At The Aquarium.wav

Peak level 100.0 %
Range quality 99.9 %
Test CRC 97CE9D8B
Copy CRC 97CE9D8B
Copy OK

No errors occurred

AccurateRip summary

Track 1 accurately ripped (confidence 6) [E641E567]
Track 2 accurately ripped (confidence 6) [52159BA1]
Track 3 accurately ripped (confidence 6) [4F656C7F]
Track 4 accurately ripped (confidence 6) [B6409F54]
Track 5 accurately ripped (confidence 6) [45C2CDBD]
Track 6 accurately ripped (confidence 6) [45ACA362]
Track 7 accurately ripped (confidence 6) [55C67F4B]

All tracks accurately ripped

End of status report

CUETools log
[CUETools log; Date: 20.12.2016 22:35:00; Version: 2.1.4]
Pregap length 00:00:50.
[CTDB TOCID: Q3L_ZxrDe5A2ZX42OjBX1gXadaU-] found.
Track | CTDB Status
1 | (12/12) Accurately ripped
2 | (12/12) Accurately ripped
3 | (12/12) Accurately ripped
4 | (12/12) Accurately ripped
5 | (12/12) Accurately ripped
6 | (12/12) Accurately ripped
7 | (12/12) Accurately ripped
[AccurateRip ID: 000aebc6-00407aba-4e08e307] found.
Track [ CRC | V2 ] Status
01 [e641e567|ce1544aa] (12+07/19) Accurately ripped
02 [52159ba1|74ad8fe7] (12+07/19) Accurately ripped
03 [4f656c7f|0a781025] (12+07/19) Accurately ripped
04 [b6409f54|10decb68] (12+07/19) Accurately ripped
05 [45c2cdbd|08b9c812] (12+07/19) Accurately ripped
06 [45aca362|a7015f01] (12+07/19) Accurately ripped
07 [55c67f4b|cd51a6d6] (12+07/19) Accurately ripped

Track Peak [ CRC32 ] [W/O NULL] [ LOG ]
– 100,0 [97CE9D8B] [7FB2B7BE] CRC32
01 100,0 [C2A3B10C] [9C9B675D]
02 85,8 [573334E9] [F97329ED]
03 44,8 [5C544ACA] [6874921B]
04 95,5 [C9B18691] [008FBF15]
05 95,3 [5F6492EC] [1CEA0A86]
06 52,3 [7A0D15D0] [3F3FA56B]
07 100,0 [F772DD3F] [FA453C4F]

Thanks to glebchic

Welcome to My Blog!

Michael Brook – Live At The Aquarium – London Zoo 21 May 1992 (1992) (Repost) Download, Warez, DDL, Free, Full Album, Torrent, Legal.

Download