MIA – Mágicos Juegos del Tiempo (1977) [Belle Antique BELLE-111891, Japan] | ViralVideoPk

Daily Dose of Free Downloads

MIA – Mágicos Juegos del Tiempo (1977) [Belle Antique BELLE-111891, Japan]

Download

MIA - Mágicos Juegos del Tiempo (1977) [Belle Antique BELLE-111891, Japan]

MIA – Mágicos Juegos del Tiempo (1977)
EAC | Flac(Image) + Cue + Log & MP3 CBR 320Kbps
2011 | Belle Antique, BELLE-111891 | ~ 353 or 155 Mb | Scans(jpg) -> 137 Mb
Progressive Rock

M.I.A.’s second album finds this peculiar ensemble exploring the realms of acoustic folk and Renaissance-inspired pastoral music with particular interest; even if this stuff is not all that is represented in the album’s repertoire, it is indeed the most recurrent factor. The Baroque academicism is also very present here, especially in many of the piano parts. The harmonic basis for the first three tracks heavily rely on the arpeggio sequences delivered on classical guitars and/or grand piano, with the female and/or male vocals strongly staging the main melodic lines: the sung parts not only tell tales of sweet princesses and majestic windmills, but they also incarnate the main motifs to the songs, providing an evidently bucolic ambience of ancient enchantments and troubadour stories. Track 2 ‘Crisálida, Mi Niña’ is a bit more surprising than the other two, since it comprises some symphonic nuances on the keyboard department, which add an air of mystery. The more habitual sense of energy of M.I.A. first emerges in track 4, titled ‘Antiguas Campanas del Pueblo’: starting with a very jazzy motif, it won’t be long before it turns into an interlude of bombastic chorale sustained on a series of solemn organ layers – after that, another jazz-oriented comes out, including a very intense synthesizer solo (very much a-la ‘Tarkus’). Great stuff. although not as great as the 11-minute ‘Archipiélagos de Güernaclara’, which is the absolute prog highlight in the album. It starts with a delicate, relaxing piano passage, soon joined and enriched by the classical guitar and Liliana Vitale’s singing; next, a jazzy jam comes in and gives room for some excellent alternating guitar and piano solos, as well as the occasional introduction of a clavinet interlude, after which the electric lead guitar returns with a vengeance. Finally, a slower part takes the track to its final climax, which built upon the antagonistic contrast between the eerie Hammond Gothic-inspired layers and the fiery Akkerman-meets-Gilmour-esque guitar solo. This description is basically to let you know about its internal diversity, which is cohesively articulated, with the same level of accomplishment you may find in the longest tracks of the other two M.I.A. albums. Track 6 is pretty much similar to track 2: an acoustic piece with a progressive interlude, while the last song sticks with the old Renaissance subject. All in all, "Mágicos Juegos del Tiempo" is a very good album, but it is only recommended to those prog-heads who don’t mind a certain amount of pastoral stuff and female singing in their prog; besides, the previous and posterior albums are more accomplished, and definitely, more according to the nuclear essence of prog rock, so I’ll have to label this album as not overtly essential. Anyway, keep this in mind: tracks 4 & 5 are really awesome.

by Cesar Inca, progarchives

MIA – Mágicos Juegos del Tiempo (1977):

MIA - Mágicos Juegos del Tiempo (1977) [Belle Antique BELLE-111891, Japan]

Tracklist:

01. Lírica del Sol [03:29.213]
02. Crisalida, Mi Niña [05:25.987]
03. Los Molinos de la Calma [04:25.440]
04. Antiguas Campanas del Pueblo [06:16.813]
05. Archipiélagos de Güernaclara [11:01.933]
06. Romanza para una Mujer Que Cose [05:46.827]
07. Corales de la Cantata Saturno [03:54.653]

Bonus tracks: Live at Teatro Santa María, 1978
08. Egloga a la Primera Carta de la Mañana [04:28.160]
09. La Caja del Viento [03:20.347]
10. Las Brujas de Calamita [05:38.733]
11. El Triste de los Mares I [05:54.600]
12. El Triste de los Mares II [05:32.960]

Musicians:

Lito Vitale — piano, organ, synthesizer, mellotron, guitars, bass, vocals
Liliana Vitale — flute, vocals, drums, percussion
Alberto Muñoz — electric & acoustic guitars, bass, vocals
Nono Belvis — electric & acoustic guitars, bass, vocals
Daniel Curto — contrabass, effects

EAC Log
Exact Audio Copy V1.1 from 23. June 2015

Отчёт EAC об извлечении, выполненном 3. января 2017, 18:13

MIA / Mágicos Juegos del Tiempo

Дисковод: TSSTcorpCDDVDW SH-224DB Adapter: 1 ID: 1

Режим чтения : Достоверность
Использование точного потока : Да
Отключение кэша аудио : Да
Использование указателей C2 : Нет

Коррекция смещения при чтении : 6
Способность читать области Lead-in и Lead-out : Нет
Заполнение пропущенных сэмплов тишиной : Да
Удаление блоков с тишиной в начале и конце : Нет
При вычислениях CRC использовались нулевые сэмплы : Да
Интерфейс : Встроенный Win32-интерфейс для Win NT/2000

Выходной формат : Внутренние WAV-операции
Формат сэмплов : 44.100 Гц; 16 бит; стерео

TOC извлечённого CD

Трек | Старт | Длительность | Начальный сектор | Конечный сектор
––––––––––––––––––––––––––––––––––-
1 | 0:00.00 | 3:31.16 | 0 | 15840
2 | 3:31.16 | 5:26.74 | 15841 | 40364
3 | 8:58.15 | 4:27.33 | 40365 | 60422
4 | 13:25.48 | 6:19.61 | 60423 | 88908
5 | 19:45.34 | 11:03.70 | 88909 | 138703
6 | 30:49.29 | 5:46.62 | 138704 | 164715
7 | 36:36.16 | 3:57.49 | 164716 | 182539
8 | 40:33.65 | 4:32.12 | 182540 | 202951
9 | 45:06.02 | 3:22.26 | 202952 | 218127
10 | 48:28.28 | 5:40.55 | 218128 | 243682
11 | 54:09.08 | 5:56.45 | 243683 | 270427
12 | 60:05.53 | 5:32.72 | 270428 | 295399

Характеристики диапазона извлечения и сообщения об ошибках

Выбранный диапазон

Имя файла D:TEMPMIA – 1977 – Magicos Juegos del Tiempo [2011 Belle Antique rem. edition, BELLE-111891].wav

Пиковый уровень 100.0 %
Скорость извлечения 3.2 X
Качество диапазона 100.0 %
CRC теста 1C5A29DE
CRC копии 1C5A29DE
Копирование… OK

Ошибок не произошло

AccurateRip: сводка

Трек 1 отсутствует в базе данных
Трек 2 отсутствует в базе данных
Трек 3 отсутствует в базе данных
Трек 4 отсутствует в базе данных
Трек 5 отсутствует в базе данных
Трек 6 отсутствует в базе данных
Трек 7 отсутствует в базе данных
Трек 8 отсутствует в базе данных
Трек 9 отсутствует в базе данных
Трек 10 отсутствует в базе данных
Трек 11 отсутствует в базе данных
Трек 12 отсутствует в базе данных

Ни одного трека нет в базе AccurateRip

Конец отчёта

==== Контрольная сумма отчёта 501237003BB726D241C0B69706472224BEEDBCC4679AF38DE0F5BAADB508AD9B ====

DR Log
foobar2000 1.2.9 / Dynamic Range Meter 1.1.1
log date: 2017-01-06 12:55:11

––––––––––––––––––––––––––––––––––––––––
Analyzed: MIA / Mágicos Juegos del Tiempo
––––––––––––––––––––––––––––––––––––––––

DR Peak RMS Duration Track
––––––––––––––––––––––––––––––––––––––––
DR11 0.00 dB -14.51 dB 3:31 01-Lírica del Sol
DR11 0.00 dB -14.53 dB 5:27 02-Crisalida, Mi Niña
DR12 0.00 dB -15.34 dB 4:27 03-Los Molinos de la Calma
DR13 0.00 dB -17.30 dB 6:20 04-Antiguas Campanas del Pueblo
DR12 0.00 dB -15.97 dB 11:04 05-Archipiélagos de Güernaclara
DR12 0.00 dB -17.08 dB 5:47 06-Romanza para una Mujer Que Cose
DR11 0.00 dB -15.45 dB 3:58 07-Corales de la Cantata Saturno
DR13 0.00 dB -19.22 dB 4:32 08-Egloga a la Primera Carta de la Mañana
DR11 0.00 dB -17.28 dB 3:22 09-Caja del Viento
DR13 0.00 dB -18.81 dB 5:41 10-Las Brujas de Calaminta
DR11 0.00 dB -18.38 dB 5:57 11-El Triste de los Mares I
DR13 0.00 dB -20.74 dB 5:33 12-El Triste de los Mares II
––––––––––––––––––––––––––––––––––––––––

Number of tracks: 12
Official DR value: DR12

Samplerate: 44100 Hz
Channels: 2
Bits per sample: 16
Bitrate: 730 kbps
Codec: FLAC

CUETools Log
[CUETools log; Date: 06.01.2017 13:11:11; Version: 2.1.4]
[CTDB TOCID: AH5RKExGQ0hDMLF.Ui7QXj1GmHI-] disk not present in database.
[AccurateRip ID: 001d5429-01138c1c-9a0f620c] disk not present in database.

Track Peak [ CRC32 ] [W/O NULL] [ LOG ]
– 100,0 [1C5A29DE] [09DAB34B] CRC32
01 100,0 [5875F1F0] [AD1D51C4]
02 100,0 [6270E06A] [DEE3A064]
03 100,0 [4362EEA2] [735FD688]
04 100,0 [464A0640] [5AD6FA72]
05 100,0 [89F2FF87] [E828BE43]
06 100,0 [248685FB] [10EA5BFD]
07 99,9 [7B96588C] [72BDE335]
08 99,9 [9FC038EB] [A85F4410]
09 99,9 [A5642032] [65346319]
10 100,0 [9E6B7D16] [8778C0D1]
11 100,0 [E2E3670C] [5E2B0159]
12 100,0 [28B9CB51] [E4AD1D58]

MIA - Mágicos Juegos del Tiempo (1977) [Belle Antique BELLE-111891, Japan]

All thanks go to spAceLover

MIA – Transparencias (1976)

Download MIA – Mágicos Juegos del Tiempo (1977):

MIA – Mágicos Juegos del Tiempo (1977) [Belle Antique BELLE-111891, Japan] Download, Warez, DDL, Free, Full Album, Torrent, Legal.

Download


  • Recent Posts

  • Recent Tags