Metalium – Grounded – Chapter Eight (2009)

Download
Metalium - Grounded - Chapter Eight (2009)

Metalium – Grounded – Chapter Eight (2009)
Metal | 1cd | EAC Rip | Ape + Cue + Log | covers
Massacre, MAS DP0597 | rel: 2009 | 450Mb

Germany’s Metalium has always been a talking point for metalheads in recent years. In metal forums across the world, topics on Metalium have always been animated and colourful, with opinions flying left, right and center about the band’s musical consistency through 7 CDs and their seemingly lack of direction in recent years. For those learning about Metalium for the first time, they are a European power metal band. Without breaking any boundaries or reaching new heights, Metalium’s sound is typical of the power “metal worship” genre; featuring speedy riffs, double bass, impressive solos and mid to high-pitch wailing vocals.
Starting strongly, the band’s first four releases (Chapters One through Four) ‘Millennium Metal’, ‘State of Triumph’, ‘Hero Nation’ and ‘As One’ were perceived as quality albums and received above board reviews around the globe. But from there, Chapters Five through to Seven were definitely not at the same calibre as the first four, and this is where the band has become stagnant and fans have begun to lose interest. While Metalium hardly changed their songwriting style and overall musical approach from Chapters Four-Six, I did notice that Chapter Seven (‘Incubus’) did have some noticeable differences from their previous CDs. Could a desperately needed change actually be on the cards for Chapter Eight?
From the opening track “Heavy Metal”, the song features this line right off the bat: “We are heavy metal, if you don’t like it… Fuck You.” The song is quite heavy with blistering guitars and hard aggression, while Basse sounds fantastic as he belts out the lyrics in almost a pure rage. This is certainly a confident way to begin the album and a big tick given here, as the band retorts to their recent bashing around forums from unimpressed metalheads.
Luckily, the anger and aggression that inspired Metalium to write "Heavy Metal" has filtered through the entire album, with the style and song-writing of a band out to prove/redeem themselves. Examples of this include "Light of Day”, which a slower mid-paced track with Metalium’s trademark wailing guitar riffs and a crunching bass line that keeps your head nodding; and “Crossroad Overload”, a wonderfully written, top-notch melodic track with another heavy bombastic riff, while Basse’s vocals standing out in superiority.
Other standout tracks would include “Falling into Darkness”, which is a swift and speedy track (once thrown into full throttle, after the slow building verses), with an obvious ‘Painkiller’ Judas Priest influence. Basse breaks out the Halford high-pitched shrieks in the intense chorus’, making for an exceptional track; while the final track on the album “Lonely” is another melodic scorcher, with heavy bass and creative riffs and hooks.
The solos too throughout this album have all been quite aggressive and also memorable; with axe-men Matthias Lange and Tolo Grimalt sounding refreshed and revitalized. Overall, I was pleasantly surprised by this big effort by Metalium. ‘Grounded’ may have just a few fillers, tracks which didn’t really get off the ground, but the majority of tracks here are very good and it’s easily the best work they’ve done in quite some time. I still feel that Metalium’s songwriting is in a need of a re-tooling rather than a complete overhaul, but at least they are now heading back in the right direction.
Aside from the music, I think it is the improvement and better use of vocalist Henning Basse which makes this CD as good and consistent as it is. Basse’s vocals have never sounded better and he continues to be one of the most consistent power metal singers in the world today. Metalium fans should grab this without a second thought, while power metal fans who may have jumped off the bandwagon should really give this band another chance after listening to this album. ~metal-archives

Track listing
01. Heavy Metal (3:33)
02. Light Of Day (4:08)
03. Pay The Fee (4:22)
04. Slavery (6:15)
05. Crossroad Overload (4:57)
06. Falling Into Darkness (4:50)
07. Are We Alone (4:01)
08. Borrowed Time (6:09)
09. Once Loyal (3:46)
10. Loneley (5:48)

Personnel
– Henning Basse – lead and backing vocals
– Matthias Lange – guitars
– Tolo Grimalt – guitars
– Lars Ratz – bass, keyboards, additional guitars
– Michael Ehré – drums, keyboards, additional guitars

eac log:
Exact Audio Copy V0.99 prebeta 4 from 23. January 2008

EAC extraction logfile from 2. October 2009, 19:00

Metalium / Grounded – Chapter Eight

Used drive : ATAPI DVD A DH20A4P Adapter: 3 ID: 0

Read mode : Secure
Utilize accurate stream : Yes
Defeat audio cache : Yes
Make use of C2 pointers : No

Read offset correction : 6
Overread into Lead-In and Lead-Out : No
Fill up missing offset samples with silence : Yes
Delete leading and trailing silent blocks : No
Null samples used in CRC calculations : Yes
Used interface : Installed external ASPI interface

Used output format : Monkey’s Audio Lossless Encoder
Selected bitrate : High Lossless Compression
Quality : High
Add ID3 tag : Yes
Command line compressor : C:Program FilesMonkey’s AudioMAC.exe

TOC of the extracted CD

Track | Start | Length | Start sector | End sector
––––––––––––––––––––––––––––-
1 | 0:00.00 | 3:33.74 | 0 | 16048
2 | 3:33.74 | 4:08.16 | 16049 | 34664
3 | 7:42.15 | 4:22.13 | 34665 | 54327
4 | 12:04.28 | 6:15.33 | 54328 | 82485
5 | 18:19.61 | 4:57.47 | 82486 | 104807
6 | 23:17.33 | 4:50.69 | 104808 | 126626
7 | 28:08.27 | 4:01.52 | 126627 | 144753
8 | 32:10.04 | 6:09.37 | 144754 | 172465
9 | 38:19.41 | 3:46.42 | 172466 | 189457
10 | 42:06.08 | 5:48.49 | 189458 | 215606

Range status and errors

Selected range

Filename D:DownloadMetalium – Grounded – Chapter Eight.wav

Peak level 99.7 %
Range quality 100.0 %
Copy CRC 58C65B97
Copy OK

No errors occurred

AccurateRip summary

Track 1 not present in database
Track 2 not present in database
Track 3 not present in database
Track 4 not present in database
Track 5 not present in database
Track 6 not present in database
Track 7 not present in database
Track 8 not present in database
Track 9 not present in database
Track 10 not present in database

None of the tracks are present in the AccurateRip database

End of status report

cuetools report:
[CUETools log; Date: 2016. 12. 19. 18:14:28; Version: 2.1.6]
[CTDB TOCID: c3C9kfYVTqOG7kchNh7oi.09ODw-] found.
Track | CTDB Status
1 | (7/7) Accurately ripped
2 | (7/7) Accurately ripped
3 | (7/7) Accurately ripped
4 | (7/7) Accurately ripped
5 | (7/7) Accurately ripped
6 | (7/7) Accurately ripped
7 | (7/7) Accurately ripped
8 | (7/7) Accurately ripped
9 | (7/7) Accurately ripped
10 | (7/7) Accurately ripped
[AccurateRip ID: 00116a00-008d4254-760b3a0a] found.
Track [ CRC | V2 ] Status
01 [9331d475|75a00df2] (0+2/2) Accurately ripped
02 [06e6915c|1cab9236] (0+2/2) Accurately ripped
03 [6b354ff1|689e9a5d] (0+2/2) Accurately ripped
04 [67eb1b64|fc45f3c4] (0+2/2) Accurately ripped
05 [38be173a|e401808f] (0+2/2) Accurately ripped
06 [dd52c29f|c6583d8b] (0+2/2) Accurately ripped
07 [9b4c65e5|40abed10] (0+2/2) Accurately ripped
08 [d57833ca|6ba9446d] (0+2/2) Accurately ripped
09 [b8232c90|63ab8ac7] (0+2/2) Accurately ripped
10 [bf271ddb|4fcb9dee] (0+2/2) Accurately ripped

Track Peak [ CRC32 ] [W/O NULL] [ LOG ]
– 99,7 [58C65B97] [ACADF589] CRC32
01 99,6 [B39B8FE7] [BC85A696]
02 99,1 [DB941ACE] [2B422B47]
03 99,7 [740FBC69] [5E52A20A]
04 99,6 [B9160A62] [546D7299]
05 99,6 [8978636F] [699E9F1E]
06 99,6 [8A5D860C] [F357A723]
07 99,6 [61C71BF5] [F7126B57]
08 99,6 [4C6F95EF] [B17DBE3A]
09 99,6 [F8A300AF] [450998E4]
10 99,6 [56989D25] [F754ECD8]

original uploader unknown

Metalium – Grounded – Chapter Eight (2009) Download, Warez, DDL, Free, Full Album, Torrent, Legal.

Download