Me'Shell NdegéOcello – If That's Your Boyfriend (He Wasn't Last Night) (US CD5) (1993) {Maverick}

Download
Me'Shell NdegéOcello - If That's Your Boyfriend (He Wasn't Last Night) (US CD5) (1993) {Maverick}

Me’Shell NdegéOcello – If That’s Your Boyfriend (He Wasn’t Last Night) (US CD5) (1993) {Maverick}
EAC Rip | FLAC with CUE and log | scans | 168 mb
MP3 CBR 320kbps | RAR | 63 mb
Genre: hip-hop, rap, jazz, R&B, soul

"If That’s Your Boyfriend (He Wasn’t Last Night)" is the 1993 single by American singer, bassist, and songwriter Me’Shell NdegéOcello. Released on Madonna’s Maverick Records, this was released in support of her debut album Plantation Lullabies and received a lot of airplay on MTV. This single features six different mixes of the song, including the album version.

Me'Shell NdegéOcello - If That's Your Boyfriend (He Wasn't Last Night) (US CD5) (1993) {Maverick}

1. If That’s Your Boyfriend (He Wasn’t Last Night) (Album Version) (4:32)
2. If That’s Your Boyfriend (He Wasn’t Last Night) (Mad Sex Mix Extended) (4:33)
3. If That’s Your Boyfriend (He Wasn’t Last Night) (The Gentrified 9 Mix) (3:56)
4. If That’s Your Boyfriend (He Wasn’t Last Night) (Existential Meditation On The Probability Of You Kissing My Mind Mix) (3:59)
5. If That’s Your Boyfriend (He Wasn’t Last Night) (Tiramisu Mix Extended) (4:39)
6. If That’s Your Boyfriend (He Wasn’t Last Night) (Li’l Freaky Mix) (5:49)

EAC Log
Exact Audio Copy V1.1 from 23. June 2015

EAC extraction logfile from 4. February 2017, 15:08

Me’Shell NdegéOcello / If That’s Your Boyfriend (He Wasn’t Last Night) (US CD5)

Used drive : TEAC DVD-ROM DV-28SW Adapter: 1 ID: 0

Read mode : Secure
Utilize accurate stream : Yes
Defeat audio cache : Yes
Make use of C2 pointers : No

Read offset correction : 6
Overread into Lead-In and Lead-Out : No
Fill up missing offset samples with silence : Yes
Delete leading and trailing silent blocks : No
Null samples used in CRC calculations : Yes
Used interface : Native Win32 interface for Win NT & 2000
Gap handling : Appended to previous track

Used output format : Internal WAV Routines
Sample format : 44.100 Hz; 16 Bit; Stereo

TOC of the extracted CD

Track | Start | Length | Start sector | End sector
––––––––––––––––––––––––––––-
1 | 0:00.32 | 4:33.35 | 32 | 20541
2 | 4:33.67 | 4:34.35 | 20542 | 41126
3 | 9:08.27 | 3:58.00 | 41127 | 58976
4 | 13:06.27 | 4:00.33 | 58977 | 77009
5 | 17:06.60 | 4:40.57 | 77010 | 98066
6 | 21:47.42 | 5:49.68 | 98067 | 124309

Track 1

Filename C:My DocumentsMy FLACMe’Shell NdegéOcello – If That’s Your Boyfriend (He Wasn’t Last Night) (US CD5) (1993) [FLAC] {Maverick}1 – If That’s Your Boyfriend (He Wasn’t Last Night) (Album Version).wav

Pre-gap length 0:00:02.32

Peak level 97.2 %
Extraction speed 0.9 X
Track quality 99.7 %
Test CRC BE025DDF
Copy CRC 1C23E950
Accurately ripped (confidence 2) [A9A47154] (AR v2)
Copy OK

Track 2

Filename C:My DocumentsMy FLACMe’Shell NdegéOcello – If That’s Your Boyfriend (He Wasn’t Last Night) (US CD5) (1993) [FLAC] {Maverick}2 – If That’s Your Boyfriend (He Wasn’t Last Night) (Mad Sex Mix Extended).wav

Pre-gap length 0:00:01.25

Peak level 97.2 %
Extraction speed 3.2 X
Track quality 100.0 %
Test CRC 753C3049
Copy CRC 753C3049
Accurately ripped (confidence 2) [4DE88887] (AR v1)
Copy OK

Track 3

Filename C:My DocumentsMy FLACMe’Shell NdegéOcello – If That’s Your Boyfriend (He Wasn’t Last Night) (US CD5) (1993) [FLAC] {Maverick}3 – If That’s Your Boyfriend (He Wasn’t Last Night) (The Gentrified 9 Mix).wav

Pre-gap length 0:00:01.05

Peak level 97.2 %
Extraction speed 3.0 X
Track quality 100.0 %
Test CRC 0F5D7124
Copy CRC 0F5D7124
Accurately ripped (confidence 2) [6B4231C9] (AR v1)
Copy OK

Track 4

Filename C:My DocumentsMy FLACMe’Shell NdegéOcello – If That’s Your Boyfriend (He Wasn’t Last Night) (US CD5) (1993) [FLAC] {Maverick}4 – If That’s Your Boyfriend (He Wasn’t Last Night) (Extistential Mediation On The Probability Of You Kissing My

Pre-gap length 0:00:00.73

Peak level 97.2 %
Extraction speed 3.3 X
Track quality 100.0 %
Test CRC 408DCBC5
Copy CRC 408DCBC5
Accurately ripped (confidence 2) [DED1BA0C] (AR v1)
Copy OK

Track 5

Filename C:My DocumentsMy FLACMe’Shell NdegéOcello – If That’s Your Boyfriend (He Wasn’t Last Night) (US CD5) (1993) [FLAC] {Maverick}5 – If That’s Your Boyfriend (He Wasn’t Last Night) (Tiramisu Mix Extended).wav

Pre-gap length 0:00:00.43

Peak level 100.0 %
Extraction speed 3.8 X
Track quality 100.0 %
Test CRC 9A0F2CCC
Copy CRC 9A0F2CCC
Accurately ripped (confidence 2) [0F34937F] (AR v2)
Copy OK

Track 6

Filename C:My DocumentsMy FLACMe’Shell NdegéOcello – If That’s Your Boyfriend (He Wasn’t Last Night) (US CD5) (1993) [FLAC] {Maverick}6 – If That’s Your Boyfriend (He Wasn’t Last Night) (Li’l Freaky Mix).wav

Pre-gap length 0:00:02.00

Peak level 97.2 %
Extraction speed 3.5 X
Track quality 99.9 %
Test CRC 8D2F934E
Copy CRC 8D2F934E
Accurately ripped (confidence 2) [D9D049D7] (AR v2)
Copy OK

All tracks accurately ripped

No errors occurred

End of status report

–– CUETools DB Plugin V2.1.6

[CTDB TOCID: iVWKKzwJMko5jFPh9qVkJHun3Is-] found
Submit result: insufficient quality
Track | CTDB Status
1 | (2/2) Accurately ripped
2 | (2/2) Accurately ripped
3 | (2/2) Accurately ripped
4 | (2/2) Accurately ripped
5 | (2/2) Accurately ripped
6 | (2/2) Accurately ripped

==== Log checksum 2290A346D5A483A21AF6E24891EE9B07A7CF7BD3F9401C700D5B91708F41A061 ====

Me'Shell NdegéOcello - If That's Your Boyfriend (He Wasn't Last Night) (US CD5) (1993) {Maverick}

Me'Shell NdegéOcello – If That's Your Boyfriend (He Wasn't Last Night) (US CD5) (1993) {Maverick} Download, Warez, DDL, Free, Full Album, Torrent, Legal.

Download