Melvins – A Walk With Love & Death (2017)

Download
Melvins - A Walk With Love & Death (2017)

Melvins – A Walk With Love & Death
EAC Rip | FLAC (tracks)+cue, log, m3u, front cover | 81:31 min | 474 MB
Label: Ipecac Recordings ‎– IPC195 | Tracks: 23 | Rls.date: 2017
Sludge, Grunge, Stoner Rock

The Melvins return with a double album, A Walk With Love and Death, on July 7 via Ipecac Recordings. The dual albums find the trio of Buzz Osborne, Dale Crover and Steve McDonald showcasing two distinct sides to the band’s music: Death, a proper Melvins’ release and Love, the score to the Jesse Nieminen directed, self-produced short also titled A Walk With Love and Death. The albums, which include guests Joey Santiago (The Pixies), Teri Gender Bender (Le Butcherettes/Crystal Fairy) and Anna Waronker (That Dog), were co-produced with engineer Toshi Kosai.

TRACKLIST

Disc 1
1. Black Health (06:41)
2. Sober-Delic (Acid Only) (06:03)
3. Euthanasia (04:36)
4. What’s Wrong WIth You? (02:36)
5. Edgar The Elephant (03:36)
6. Flaming Creature (04:22)
7. Christ Hammer (03:51)
8. Cactus Party (03:37)
9. Cardboa Negro (02:56)

EAC Log
Exact Audio Copy V1.3 from 2. September 2016

EAC extraction logfile from 13. July 2017, 17:20

Melvins / A Walk With Love & Death

Used drive : ATAPI iHAS124 Y Adapter: 1 ID: 1

Read mode : Secure
Utilize accurate stream : Yes
Defeat audio cache : Yes
Make use of C2 pointers : No

Read offset correction : 48
Overread into Lead-In and Lead-Out : No
Fill up missing offset samples with silence : Yes
Delete leading and trailing silent blocks : No
Null samples used in CRC calculations : Yes
Used interface : Native Win32 interface for Win NT & 2000
Gap handling : Appended to previous track

Used output format : User Defined Encoder
Selected bitrate : 1024 kBit/s
Quality : High
Add ID3 tag : No
Command line compressor : C:Program Files (x86)Exact Audio CopyFlacflac.exe
Additional command line options : -8 -e -p -V -T "ARTIST=%artist%" -T "TITLE=%title%" -T "ALBUM=%albumtitle%" -T "DATE=%year%" -T "TRACKNUMBER=%tracknr%" -T "GENRE=%genre%" -T "PERFORMER=%albuminterpret%" -T "COMPOSER=%composer%" %haslyrics%–tag-from-file=LYRICS="%lyricsfile%"%haslyrics% -T "ALBUMARTIST=%albumartist%" -T "DISCNUMBER=%cdnumber%" -T "TOTALDISCS=%totalcds%" -T "TOTALTRACKS=%numtracks%" -T "COMMENT=%comment%" %source% -o %dest%

TOC of the extracted CD

Track | Start | Length | Start sector | End sector
––––––––––––––––––––––––––––-
1 | 0:00.00 | 6:41.68 | 0 | 30142
2 | 6:41.68 | 6:03.24 | 30143 | 57391
3 | 12:45.17 | 4:36.33 | 57392 | 78124
4 | 17:21.50 | 2:36.42 | 78125 | 89866
5 | 19:58.17 | 3:36.45 | 89867 | 106111
6 | 23:34.62 | 4:22.58 | 106112 | 125819
7 | 27:57.45 | 3:51.57 | 125820 | 143201
8 | 31:49.27 | 3:37.52 | 143202 | 159528
9 | 35:27.04 | 2:58.67 | 159529 | 172945

Track 1

Filename F:Melvins – A Walk With Love & Death (2017) [FLAC] {IPC 195}Disc 11 Black Health.wav

Pre-gap length 0:00:02.00

Peak level 99.2 %
Extraction speed 2.3 X
Track quality 100.0 %
Test CRC D9D53668
Copy CRC D9D53668
Track not present in AccurateRip database
Copy OK

Track 2

Filename F:Melvins – A Walk With Love & Death (2017) [FLAC] {IPC 195}Disc 12 Sober-delic (acid only).wav

Peak level 100.0 %
Extraction speed 2.8 X
Track quality 100.0 %
Test CRC 1E207D37
Copy CRC 1E207D37
Track not present in AccurateRip database
Copy OK

Track 3

Filename F:Melvins – A Walk With Love & Death (2017) [FLAC] {IPC 195}Disc 13 Euthanasia.wav

Peak level 100.0 %
Extraction speed 3.0 X
Track quality 100.0 %
Test CRC 268F5F83
Copy CRC 268F5F83
Track not present in AccurateRip database
Copy OK

Track 4

Filename F:Melvins – A Walk With Love & Death (2017) [FLAC] {IPC 195}Disc 14 What’s Wrong With You.wav

Peak level 98.9 %
Extraction speed 2.9 X
Track quality 100.0 %
Test CRC 0F801211
Copy CRC 0F801211
Track not present in AccurateRip database
Copy OK

Track 5

Filename F:Melvins – A Walk With Love & Death (2017) [FLAC] {IPC 195}Disc 15 Edgar the Elephant.wav

Peak level 99.1 %
Extraction speed 3.2 X
Track quality 100.0 %
Test CRC F11068AD
Copy CRC F11068AD
Track not present in AccurateRip database
Copy OK

Track 6

Filename F:Melvins – A Walk With Love & Death (2017) [FLAC] {IPC 195}Disc 16 Flaming Creature.wav

Peak level 99.2 %
Extraction speed 3.5 X
Track quality 100.0 %
Test CRC E77D8C14
Copy CRC E77D8C14
Track not present in AccurateRip database
Copy OK

Track 7

Filename F:Melvins – A Walk With Love & Death (2017) [FLAC] {IPC 195}Disc 17 Christ Hammer.wav

Peak level 99.5 %
Extraction speed 3.2 X
Track quality 99.9 %
Test CRC D5B4E16E
Copy CRC D5B4E16E
Track not present in AccurateRip database
Copy OK

Track 8

Filename F:Melvins – A Walk With Love & Death (2017) [FLAC] {IPC 195}Disc 18 Cactus Party.wav

Peak level 98.8 %
Extraction speed 3.7 X
Track quality 100.0 %
Test CRC FD6D0966
Copy CRC FD6D0966
Track not present in AccurateRip database
Copy OK

Track 9

Filename F:Melvins – A Walk With Love & Death (2017) [FLAC] {IPC 195}Disc 19 Cardboa Negro.wav

Peak level 97.6 %
Extraction speed 3.7 X
Track quality 100.0 %
Test CRC 4238A3F1
Copy CRC 4238A3F1
Track not present in AccurateRip database
Copy OK

None of the tracks are present in the AccurateRip database

No errors occurred

End of status report

–– CUETools DB Plugin V2.1.6

[CTDB TOCID: h8NN_gSCjZHLRJyD.vAb8eu_tNA-] found
Submit result: h8NN_gSCjZHLRJyD.vAb8eu_tNA- has been confirmed
Track | CTDB Status
1 | (7/7) Accurately ripped
2 | (7/7) Accurately ripped
3 | (7/7) Accurately ripped
4 | (7/7) Accurately ripped
5 | (7/7) Accurately ripped
6 | (7/7) Accurately ripped
7 | (7/7) Accurately ripped
8 | (7/7) Accurately ripped
9 | (7/7) Accurately ripped

==== Log checksum EBE9695D4439E74619B3DA34C7866A97A150D0553508BE097E95414346046D1D ====

Disc 2
1. Aim High (02:01)
2. Queen Powder Party (02:14)
3. Street Level St. Paul (02:18)
4. The Hidden Joice (01:11)
5. Give It To Me (02:49)
6. Chicken Butt (01:49)
7. Eat Yourself Out (05:03)
8. Scooba (01:09)
9. Halfway To The Bakersfield Mall (04:17)
10. Pacoima Normal (02:33)
11. Park Head (03:39)
12. T-Burg (04:10)
13. Track Star (05:02)

EAC Log
Exact Audio Copy V1.3 from 2. September 2016

EAC extraction logfile from 13. July 2017, 19:46

Melvins / A Walk With Love & Death

Used drive : ATAPI iHAS124 Y Adapter: 1 ID: 1

Read mode : Secure
Utilize accurate stream : Yes
Defeat audio cache : Yes
Make use of C2 pointers : No

Read offset correction : 48
Overread into Lead-In and Lead-Out : No
Fill up missing offset samples with silence : Yes
Delete leading and trailing silent blocks : No
Null samples used in CRC calculations : Yes
Used interface : Native Win32 interface for Win NT & 2000
Gap handling : Appended to previous track

Used output format : User Defined Encoder
Selected bitrate : 1024 kBit/s
Quality : High
Add ID3 tag : No
Command line compressor : C:Program Files (x86)Exact Audio CopyFlacflac.exe
Additional command line options : -8 -e -p -V -T "ARTIST=%artist%" -T "TITLE=%title%" -T "ALBUM=%albumtitle%" -T "DATE=%year%" -T "TRACKNUMBER=%tracknr%" -T "GENRE=%genre%" -T "PERFORMER=%albuminterpret%" -T "COMPOSER=%composer%" %haslyrics%–tag-from-file=LYRICS="%lyricsfile%"%haslyrics% -T "ALBUMARTIST=%albumartist%" -T "DISCNUMBER=%cdnumber%" -T "TOTALDISCS=%totalcds%" -T "TOTALTRACKS=%numtracks%" -T "COMMENT=%comment%" %source% -o %dest%

TOC of the extracted CD

Track | Start | Length | Start sector | End sector
––––––––––––––––––––––––––––-
1 | 0:00.00 | 2:02.06 | 0 | 9155
2 | 2:02.06 | 2:14.55 | 9156 | 19260
3 | 4:16.61 | 2:18.49 | 19261 | 29659
4 | 6:35.35 | 1:11.28 | 29660 | 35012
5 | 7:46.63 | 2:49.37 | 35013 | 47724
6 | 10:36.25 | 1:49.49 | 47725 | 55948
7 | 12:25.74 | 5:03.56 | 55949 | 78729
8 | 17:29.55 | 1:09.25 | 78730 | 83929
9 | 18:39.05 | 4:17.28 | 83930 | 103232
10 | 22:56.33 | 2:33.03 | 103233 | 114710
11 | 25:29.36 | 3:39.26 | 114711 | 131161
12 | 29:08.62 | 4:10.57 | 131162 | 149968
13 | 33:19.44 | 5:02.74 | 149969 | 172692
14 | 38:22.43 | 4:55.38 | 172693 | 194855

Track 1

Filename F:Melvins – A Walk With Love & Death (2017) [FLAC] {IPC 195}Disc 21 Aim High.wav

Pre-gap length 0:00:02.00

Peak level 67.2 %
Extraction speed 1.9 X
Track quality 100.0 %
Test CRC 6A4BDACB
Copy CRC 6A4BDACB
Track not present in AccurateRip database
Copy OK

Track 2

Filename F:Melvins – A Walk With Love & Death (2017) [FLAC] {IPC 195}Disc 22 Queen Powder Party.wav

Peak level 98.2 %
Extraction speed 2.0 X
Track quality 100.0 %
Test CRC 8BC00F77
Copy CRC 8BC00F77
Track not present in AccurateRip database
Copy OK

Track 3

Filename F:Melvins – A Walk With Love & Death (2017) [FLAC] {IPC 195}Disc 23 Street Level St. Paul.wav

Peak level 96.5 %
Extraction speed 2.2 X
Track quality 100.0 %
Test CRC 9DBC26BE
Copy CRC 9DBC26BE
Track not present in AccurateRip database
Copy OK

Track 4

Filename F:Melvins – A Walk With Love & Death (2017) [FLAC] {IPC 195}Disc 24 The Hidden Joice.wav

Peak level 69.7 %
Extraction speed 1.4 X
Track quality 99.8 %
Test CRC 6304E438
Copy CRC 6304E438
Track not present in AccurateRip database
Copy OK

Track 5

Filename F:Melvins – A Walk With Love & Death (2017) [FLAC] {IPC 195}Disc 25 Give It To Me.wav

Peak level 98.0 %
Extraction speed 2.5 X
Track quality 100.0 %
Test CRC 57B86DAB
Copy CRC 57B86DAB
Track not present in AccurateRip database
Copy OK

Track 6

Filename F:Melvins – A Walk With Love & Death (2017) [FLAC] {IPC 195}Disc 26 Chicken Butt.wav

Peak level 96.7 %
Extraction speed 2.4 X
Track quality 100.0 %
Test CRC 82D09A30
Copy CRC 82D09A30
Track not present in AccurateRip database
Copy OK

Track 7

Filename F:Melvins – A Walk With Love & Death (2017) [FLAC] {IPC 195}Disc 27 Eat Yourself Out.wav

Peak level 99.4 %
Extraction speed 2.8 X
Track quality 99.9 %
Test CRC 7F73A6E5
Copy CRC 7F73A6E5
Track not present in AccurateRip database
Copy OK

Track 8

Filename F:Melvins – A Walk With Love & Death (2017) [FLAC] {IPC 195}Disc 28 Scooba.wav

Peak level 88.9 %
Extraction speed 2.3 X
Track quality 100.0 %
Test CRC A8D72DF2
Copy CRC A8D72DF2
Track not present in AccurateRip database
Copy OK

Track 9

Filename F:Melvins – A Walk With Love & Death (2017) [FLAC] {IPC 195}Disc 29 Halfway To The Bakersfield Mall.wav

Peak level 89.9 %
Extraction speed 3.3 X
Track quality 100.0 %
Test CRC 3BC9B511
Copy CRC 3BC9B511
Track not present in AccurateRip database
Copy OK

Track 10

Filename F:Melvins – A Walk With Love & Death (2017) [FLAC] {IPC 195}Disc 210 Pacoima Normal.wav

Peak level 96.6 %
Extraction speed 2.6 X
Track quality 99.9 %
Test CRC 30019892
Copy CRC 30019892
Track not present in AccurateRip database
Copy OK

Track 11

Filename F:Melvins – A Walk With Love & Death (2017) [FLAC] {IPC 195}Disc 211 Park Head.wav

Peak level 81.6 %
Extraction speed 3.4 X
Track quality 100.0 %
Test CRC 1B1959BA
Copy CRC 1B1959BA
Track not present in AccurateRip database
Copy OK

Track 12

Filename F:Melvins – A Walk With Love & Death (2017) [FLAC] {IPC 195}Disc 212 T-Burg.wav

Peak level 96.2 %
Extraction speed 3.7 X
Track quality 100.0 %
Test CRC FE314EED
Copy CRC FE314EED
Track not present in AccurateRip database
Copy OK

Track 13

Filename F:Melvins – A Walk With Love & Death (2017) [FLAC] {IPC 195}Disc 213 Track Star.wav

Peak level 96.6 %
Extraction speed 3.9 X
Track quality 100.0 %
Test CRC A6F61F5E
Copy CRC A6F61F5E
Track not present in AccurateRip database
Copy OK

Track 14

Filename F:Melvins – A Walk With Love & Death (2017) [FLAC] {IPC 195}Disc 214 The Asshole Bastard.wav

Peak level 96.9 %
Extraction speed 3.7 X
Track quality 99.9 %
Test CRC B88D019A
Copy CRC B88D019A
Track not present in AccurateRip database
Copy OK

None of the tracks are present in the AccurateRip database

No errors occurred

End of status report

–– CUETools DB Plugin V2.1.6

[CTDB TOCID: 9LnPPef71KcXQ7QRA_D8EnsJAZI-] found
Submit result: 9LnPPef71KcXQ7QRA_D8EnsJAZI- has been confirmed
Track | CTDB Status
1 | (7/7) Accurately ripped
2 | (7/7) Accurately ripped
3 | (7/7) Accurately ripped
4 | (7/7) Accurately ripped
5 | (7/7) Accurately ripped
6 | (7/7) Accurately ripped
7 | (7/7) Accurately ripped
8 | (7/7) Accurately ripped
9 | (7/7) Accurately ripped
10 | (7/7) Accurately ripped
11 | (7/7) Accurately ripped
12 | (7/7) Accurately ripped
13 | (7/7) Accurately ripped
14 | (7/7) Accurately ripped

==== Log checksum 36674ED74541236722E1ED415C8421B6E80CE0573C75FD4A2B6D68E538656193 ====

Thanks to the Original customer.

Melvins – A Walk With Love & Death (2017) Download, Warez, DDL, Free, Full Album, Torrent, Legal.

Download