Melvin Smith – Portrait (2007) {Enhanced CD}

Download
Melvin Smith - Portrait (2007) {Enhanced CD}

Melvin Smith – Portrait (2007) {Enhanced CD}
EAC Rip | FLAC with CUE and log | scans | 317 mb
MP3 CBR 320kbps | RAR | 134 mb
Genre: jazz, gospel jazz

Portrait is the 2007 album by Melvin Smith. The album is in honor of his spiritual beliefs and consists of jazz renditions of well known gospel songs. Self-released, this is also an enhanced CD.

Melvin Smith - Portrait (2007) {Enhanced CD}

1. Lord I Lift Your Name On High
2. Go Down Moses/Wade In The Water
3. Manasseh
4. Trylenera (Part 1)
5. Someday We’ll All Be Free
6. 1750 Washington St.
7. God Bless The Child
8. Trylenera (Part 2)
9. We Shall Overcome

Melvin G. Smith-soprano & tenor saxophone, piano overdubs
Lino C. Gomez-acoustic & electric bass
Reggie Pittman-trumpet & Flugelhorn (tracks 5-6 & 8)
Stephen Lee-piano (tracks 1-4 & 9)
Gregory Royals-piano (tracks 5-8)
Sam Knight-drums (tracks 1-4 & 9)
Ezra Henry-drums (tracks 5-6 & 8)

Produced by Melvin Smith
Recorded 24 February, 2007 and 31 March, 2007 at Bennett Studios, Englewood, NJ
Engineered, mixed & mastered by Al Perrotta

Melvin Smith - Portrait (2007) {Enhanced CD}
EAC Log
EAC extraction logfile from 27. June 2017, 1:30 for CD
Melvin Smith / Portrait

Used drive : TSSTcorpDVD+-RW TS-H653B Adapter: 2 ID: 0
Read mode : Secure with NO C2, accurate stream, disable cache
Read offset correction : 6
Overread into Lead-In and Lead-Out : No

Used output format : Internal WAV Routines
44.100 Hz; 16 Bit; Stereo

Other options :
Fill up missing offset samples with silence : Yes
Delete leading and trailing silent blocks : No
Native Win32 interface for Win NT & 2000

Track 1
Filename C:Documents and SettingscuntfistDesktopFLAC’s16Melvin Smith – Portrait (2007) [FLAC] {Enhanced CD}1 – Lord I Lift Your Name On High.wav

Pre-gap length 0:00:02.00

Peak level 100.0 %
Track quality 100.0 %
Test CRC 485D5B72
Copy CRC 485D5B72
Copy OK

Track 2
Filename C:Documents and SettingscuntfistDesktopFLAC’s16Melvin Smith – Portrait (2007) [FLAC] {Enhanced CD}2 – Go Down Moses, Wade In The Water.wav

Peak level 100.0 %
Track quality 100.0 %
Test CRC 6E8D5EAE
Copy CRC 6E8D5EAE
Copy OK

Track 3
Filename C:Documents and SettingscuntfistDesktopFLAC’s16Melvin Smith – Portrait (2007) [FLAC] {Enhanced CD}3 – Manasseh.wav

Peak level 100.0 %
Track quality 100.0 %
Test CRC DD77F1A0
Copy CRC DD77F1A0
Copy OK

Track 4
Filename C:Documents and SettingscuntfistDesktopFLAC’s16Melvin Smith – Portrait (2007) [FLAC] {Enhanced CD}4 – Trylenera (Part 1).wav

Peak level 100.0 %
Track quality 100.0 %
Test CRC FDACCEB9
Copy CRC FDACCEB9
Copy OK

Track 5
Filename C:Documents and SettingscuntfistDesktopFLAC’s16Melvin Smith – Portrait (2007) [FLAC] {Enhanced CD}5 – Someday We’ll All Be Free.wav

Peak level 100.0 %
Track quality 100.0 %
Test CRC 78F45BCA
Copy CRC 78F45BCA
Copy OK

Track 6
Filename C:Documents and SettingscuntfistDesktopFLAC’s16Melvin Smith – Portrait (2007) [FLAC] {Enhanced CD}6 – 1750 Washington St..wav

Peak level 100.0 %
Track quality 100.0 %
Test CRC A719B7E7
Copy CRC A719B7E7
Copy OK

Track 7
Filename C:Documents and SettingscuntfistDesktopFLAC’s16Melvin Smith – Portrait (2007) [FLAC] {Enhanced CD}7 – God Bless The Child.wav

Peak level 100.0 %
Track quality 99.9 %
Test CRC C7F1A176
Copy CRC C7F1A176
Copy OK

Track 8
Filename C:Documents and SettingscuntfistDesktopFLAC’s16Melvin Smith – Portrait (2007) [FLAC] {Enhanced CD}8 – Trylenera (Part 2).wav

Peak level 100.0 %
Track quality 100.0 %
Test CRC 1B56A975
Copy CRC 1B56A975
Copy OK

Track 9
Filename C:Documents and SettingscuntfistDesktopFLAC’s16Melvin Smith – Portrait (2007) [FLAC] {Enhanced CD}9 – We Shall Overcome.wav

Peak level 100.0 %
Track quality 100.0 %
Test CRC BCDF4CE0
Copy CRC BCDF4CE0
Copy OK

No errors occured

End of status report

Melvin Smith - Portrait (2007) {Enhanced CD}

Melvin Smith – Portrait (2007) {Enhanced CD} Download, Warez, DDL, Free, Full Album, Torrent, Legal.

Download