Maurice el Medioni meets Roberto Rodriguez – Descarga Oriental: The New York Sessions (2006) {Piranha CD-PIR2003}

Download
Maurice el Medioni meets Roberto Rodriguez - Descarga Oriental: The New York Sessions (2006) {Piranha CD-PIR2003}

Maurice El Médioni meets Roberto Rodriguez – Descarga Oriental: The New York Sessions (2006) {Piranha CD-PIR2003}
XLD rip (secure mode) | FLAC (tracks)+CUE+LOG -> 392 Mb | MP3 @320 -> 147 Mb
Full Artwork @ 300 dpi (png) -> 35 Mb | 5% repair rar
© 2006 Piranha Musik | CD-PIR2003
Jazz / Latin / Jewish / International / Piano / Percussion

On first thought, one might be hard-pressed to find a common ground between Algerian raï music and Latin jazz. But for the pianist Maurice el Medioni, an Algerian-born Jew who left his home for France decades ago as an exile, and the Cuban-born, New York-based percussionist Roberto Rodriguez, the link connecting North Africa and Cuba is a direct one – by way of Spanish Andalusia. World music fusion exercises are more common all the time, and cultural distinctions often become so blurred that the sources are obscured rather than accented.

Not on Descarga Oriental: The New York Sessions, though: a septuagenarian at the time this was recorded, el Medioni’s so-called "PianOriental" keyboard lines find the ideal balance between his raï heritage – the flamenco-influenced pop-folk style originated in Oran, Algeria and was in large part popularized by el Medioni – and the more familiar Afro-Cuban rhythms in which Rodriguez excels. The compositions all emanate from el Medioni, who first played Latin music as a teenager when Puerto Rican soldiers sat in with him in the cafes of Oran. But perhaps because Rodriguez arranged and produced the session, and presumably brought in the supporting musicians, the set tends to tilt more toward the Latin half of the equation than the North African. Instruments native to both Cuba (trés) and North Africa (darbuka) are incorporated into the mix, and elements of Spanish, French, and Jewish idioms all pop in and out. But the album’s generous reliance on Latin-style trumpet soloing, Rodriguez’s swinging rhythms, and el Medioni’s career-long interest in Latin music, anchors the jams and never takes them too far from the island whose music has so influenced these players. It’s an invigorating, inspired pairing, for sure, and one that makes even more sense when heard than when presented theoretically on paper.

Maurice el Medioni meets Roberto Rodriguez - Descarga Oriental: The New York Sessions (2006) {Piranha CD-PIR2003}

AAJ INFO
Piranha INFO

Personnel:
Maurice El Médioni
– piano, organ, vocals
Roberto Rodriguez – percussion
Natalie Michan – vocals
Jennifer Vincent – bass
Ben Lapidus – tres
Oscar Oñoz – trumpet
Nir Z – darbuka

tracklist:
01 – Oran Oran
02 – Je n’aime que toi
03 – Ana Ouana
04 – Oh! Ma belle
05 – Tu n’aurais jamais du
06 – Moi je t’aime toujours
07 – Malika
08 – Comme tu as change
09 – C’etait il y a longtemps

XLD log
X Lossless Decoder version 20141129 (148.1)

XLD extraction logfile from 2015-05-30 13:46:23 -0700

Maurice el Medioni meets Roberto Rodriguez / Descarga Oriental The New York Sessions

Used drive : HL-DT-ST DVDRW GA32N (revision KE06)
Media type : Pressed CD

Ripper mode : XLD Secure Ripper
Disable audio cache : OK for the drive with a cache less than 1375KiB
Make use of C2 pointers : NO
Read offset correction : 103
Max retry count : 100
Gap status : Analyzed, Appended (except HTOA)

TOC of the extracted CD
Track | Start | Length | Start sector | End sector
––––––––––––––––––––––––––––-
1 | 00:00:00 | 08:38:43 | 0 | 38892
2 | 08:38:43 | 05:15:20 | 38893 | 62537
3 | 13:53:63 | 09:00:67 | 62538 | 103104
4 | 22:54:55 | 05:28:62 | 103105 | 127766
5 | 28:23:42 | 07:06:02 | 127767 | 159718
6 | 35:29:44 | 06:40:40 | 159719 | 189758
7 | 42:10:09 | 07:06:35 | 189759 | 221743
8 | 49:16:44 | 05:31:39 | 221744 | 246607
9 | 54:48:08 | 07:26:34 | 246608 | 280091

AccurateRip Summary (DiscID: 0015d2d1-009ea7bb-700e9609)
Track 01 : OK (v1+v2, confidence 9/9)
Track 02 : OK (v1+v2, confidence 9/9)
Track 03 : OK (v1+v2, confidence 8/8)
Track 04 : OK (v1+v2, confidence 9/9)
Track 05 : OK (v1+v2, confidence 9/9)
Track 06 : OK (v1+v2, confidence 8/8)
Track 07 : OK (v1+v2, confidence 8/8)
Track 08 : OK (v1+v2, confidence 9/9)
Track 09 : OK (v1+v2, confidence 9/9)
->All tracks accurately ripped.

All Tracks
Album gain : -7.16 dB
Peak : 0.966553
Statistics
Read error : 0
Jitter error (maybe fixed) : 0
Retry sector count : 0
Damaged sector count : 0

Track 01
Filename : /Volumes/OWC Mercury Elite Pro – #2/Needs something/ Music/Maurice el Medioni Meets Roberto Rodriguez – Descargsessions a Oriental – The N.Y. (2006) [FLAC]/01 – Oran Oran.flac
Pre-gap length : 00:02:00

Track gain : -7.06 dB
Peak : 0.966522
CRC32 hash (test run) : E33D722E
CRC32 hash : E33D722E
CRC32 hash (skip zero) : 50E4B738
AccurateRip v1 signature : 3DD445B7
AccurateRip v2 signature : 02097E6E
->Accurately ripped (v1+v2, confidence 6+3/9)
Statistics
Read error : 0
Jitter error (maybe fixed) : 0
Retry sector count : 0
Damaged sector count : 0

Track 02
Filename : /Volumes/OWC Mercury Elite Pro – #2/Needs something/ Music/Maurice el Medioni Meets Roberto Rodriguez – Descargsessions a Oriental – The N.Y. (2006) [FLAC]/02 – Je n’aime que toi.flac

Track gain : -7.37 dB
Peak : 0.966553
CRC32 hash (test run) : D38613B0
CRC32 hash : D38613B0
CRC32 hash (skip zero) : 3ECC9EAC
AccurateRip v1 signature : 4100AF99
AccurateRip v2 signature : 924E19BE
->Accurately ripped (v1+v2, confidence 6+3/9)
Statistics
Read error : 0
Jitter error (maybe fixed) : 0
Retry sector count : 0
Damaged sector count : 0

Track 03
Filename : /Volumes/OWC Mercury Elite Pro – #2/Needs something/ Music/Maurice el Medioni Meets Roberto Rodriguez – Descargsessions a Oriental – The N.Y. (2006) [FLAC]/03 – Ana Ouana.flac

Track gain : -5.67 dB
Peak : 0.966553
CRC32 hash (test run) : 09185DCB
CRC32 hash : 09185DCB
CRC32 hash (skip zero) : AB351A64
AccurateRip v1 signature : BBECC636
AccurateRip v2 signature : B82910B9
->Accurately ripped (v1+v2, confidence 5+3/8)
Statistics
Read error : 0
Jitter error (maybe fixed) : 0
Retry sector count : 0
Damaged sector count : 0

Track 04
Filename : /Volumes/OWC Mercury Elite Pro – #2/Needs something/ Music/Maurice el Medioni Meets Roberto Rodriguez – Descargsessions a Oriental – The N.Y. (2006) [FLAC]/04 – Oh! Ma belle.flac

Track gain : -8.00 dB
Peak : 0.966522
CRC32 hash (test run) : 8184B008
CRC32 hash : 8184B008
CRC32 hash (skip zero) : 6162B2FD
AccurateRip v1 signature : EE2171FA
AccurateRip v2 signature : F3E8B844
->Accurately ripped (v1+v2, confidence 6+3/9)
Statistics
Read error : 0
Jitter error (maybe fixed) : 0
Retry sector count : 0
Damaged sector count : 0

Track 05
Filename : /Volumes/OWC Mercury Elite Pro – #2/Needs something/ Music/Maurice el Medioni Meets Roberto Rodriguez – Descargsessions a Oriental – The N.Y. (2006) [FLAC]/05 – Tu n’aurais jamais du.flac

Track gain : -7.28 dB
Peak : 0.966492
CRC32 hash (test run) : 61F537CC
CRC32 hash : 61F537CC
CRC32 hash (skip zero) : C4F2178D
AccurateRip v1 signature : E20FC17A
AccurateRip v2 signature : EAC64511
->Accurately ripped (v1+v2, confidence 6+3/9)
Statistics
Read error : 0
Jitter error (maybe fixed) : 0
Retry sector count : 0
Damaged sector count : 0

Track 06
Filename : /Volumes/OWC Mercury Elite Pro – #2/Needs something/ Music/Maurice el Medioni Meets Roberto Rodriguez – Descargsessions a Oriental – The N.Y. (2006) [FLAC]/06 – Moi je t’aime toujours.flac

Track gain : -6.48 dB
Peak : 0.966492
CRC32 hash (test run) : 3C4749D2
CRC32 hash : 3C4749D2
CRC32 hash (skip zero) : 9A70EA00
AccurateRip v1 signature : 0A3349E4
AccurateRip v2 signature : C58AA261
->Accurately ripped (v1+v2, confidence 5+3/8)
Statistics
Read error : 0
Jitter error (maybe fixed) : 0
Retry sector count : 0
Damaged sector count : 0

Track 07
Filename : /Volumes/OWC Mercury Elite Pro – #2/Needs something/ Music/Maurice el Medioni Meets Roberto Rodriguez – Descargsessions a Oriental – The N.Y. (2006) [FLAC]/07 – Malika.flac

Track gain : -6.38 dB
Peak : 0.966492
CRC32 hash (test run) : 2B809596
CRC32 hash : 2B809596
CRC32 hash (skip zero) : B7AD923E
AccurateRip v1 signature : FD5931C3
AccurateRip v2 signature : AE9FBAC4
->Accurately ripped (v1+v2, confidence 5+3/8)
Statistics
Read error : 0
Jitter error (maybe fixed) : 0
Retry sector count : 0
Damaged sector count : 0

Track 08
Filename : /Volumes/OWC Mercury Elite Pro – #2/Needs something/ Music/Maurice el Medioni Meets Roberto Rodriguez – Descargsessions a Oriental – The N.Y. (2006) [FLAC]/08 – Comme tu as change.flac

Track gain : -7.78 dB
Peak : 0.966431
CRC32 hash (test run) : D6A9B2F3
CRC32 hash : D6A9B2F3
CRC32 hash (skip zero) : D89F4172
AccurateRip v1 signature : 17A05772
AccurateRip v2 signature : B0575BF6
->Accurately ripped (v1+v2, confidence 6+3/9)
Statistics
Read error : 0
Jitter error (maybe fixed) : 0
Retry sector count : 0
Damaged sector count : 0

Track 09
Filename : /Volumes/OWC Mercury Elite Pro – #2/Needs something/ Music/Maurice el Medioni Meets Roberto Rodriguez – Descargsessions a Oriental – The N.Y. (2006) [FLAC]/09 – C’etait il y a longtemps.flac

Track gain : -7.43 dB
Peak : 0.966522
CRC32 hash (test run) : A4386692
CRC32 hash : A4386692
CRC32 hash (skip zero) : CE19E88B
AccurateRip v1 signature : DE18EA7E
AccurateRip v2 signature : F729063E
->Accurately ripped (v1+v2, confidence 6+3/9)
Statistics
Read error : 0
Jitter error (maybe fixed) : 0
Retry sector count : 0
Damaged sector count : 0

No errors occurred

End of status report

––-BEGIN XLD SIGNATURE––-
QwnYx7S4hsiJZmYV6AJ3Zp1xQi8jYGqlWEN5fXnlyE8MFBUB8STINuB5KmqTpfi0_AEaggWdy5IDhAzKjt6in_.SAiVwbGYsGjGiVFu
––-END XLD SIGNATURE––-

Maurice el Medioni meets Roberto Rodriguez - Descarga Oriental: The New York Sessions (2006) {Piranha CD-PIR2003}

Maurice el Medioni meets Roberto Rodriguez - Descarga Oriental: The New York Sessions (2006) {Piranha CD-PIR2003}

All thanks goes to the original releaser!

===

Maurice el Medioni meets Roberto Rodriguez – Descarga Oriental: The New York Sessions (2006) {Piranha CD-PIR2003} Download, Warez, DDL, Free, Full Album, Torrent, Legal.

Download