Matthew McAnuff – Be Careful (2013) {Chapter Two-Wagram Music 3279792}

Download
Matthew McAnuff - Be Careful (2013) {Chapter Two-Wagram Music 3279792}

Matthew McAnuff – Be Careful (2013) {Chapter Two-Wagram Music 3279792}
EAC rip (secure mode) | FLAC (tracks)+CUE+LOG -> 353 Mb | MP3 @320 -> 121 Mb
Full Artwork @ 300 dpi (png) -> 82 Mb | 5% repair rar
© 2013 Chapter Two / Wagram Music / Matthew McAnuff | 3279792
Reggae

When the descendants of a deceased musical legend put unreleased recordings of the artist on the market, no eyebrows are raised. We have gotten used to it, and fans will purchase it regardless of the quality. When the debut album of a promising young gun is being released posthumously, it is an entirely different matter.

Matthew McAnuff - Be Careful (2013) {Chapter Two-Wagram Music 3279792}

Matthew McAnuff started to record his album debut in 2009. Advice came from his father, Winston “Electric Dread” McAnuff, who produced much of it. Coming from a musical family – Matthew‘s elder brother Rashaun “Black Kush” is the drummer of Uprising Roots -, the path Matthew chose seemed natural. The accolades he got in 2010 for his Earl “Chinna” Smith-produced single Be Careful confirmed that. The reggae press suddenly saw Matthew McAnuff as Winston‘s most talented son, and as an upcoming star. Two years later, on August 22, 2012, Matthew McAnuff was stabbed to death at the age of 25 in Montego Bay, Jamaica over a ludicrous dispute.

The album that was supposed to start a promising career had become his legacy. Matthew had finished it before his untimely death. Now his father released it on Chapter Two, the successor of the short-lived French label Makasound. The album is named after Matthew McAnuff‘s single that turned out to be terribly premonitory, Be Careful. On board of the project were the Roots Radics with Flabba Holt, Style Scott and Dwight Pickney, plus Leroy “Horsemouth” Wallace, Sticky Thompson, and Richie McDonald. Cedric Myton provided some backing vocals. On top of that, Matthew had invited a few friends from France: Fixi, a good friend of Winston McAnuff, plays accordion on the intense Midnight Rolling. Later this year, he‘ll release A New Day, another joint venture album with Winston. Fixi is further listed as an arranger. The brass section on Be Careful features Guillaume “Stepper” Briard, Eric “Rico” Gaultier, and Olivier Caron. Parisian producer Tom Fire is responsible for the mixing.

Be Careful contains thirteen tracks. It‘s pure, vibrant roots reggae, spiced up with a bit of dub. The only exception is Brainwash, the tune Matthew had recorded on a riddim provided by Tom Fire. Musically, this one is outright electro. Its lyrics are as conscious and thoughtful as the rest, though. Rastafari and its topoi are the guideline here. There‘s a bit of lovers in between (Make Up Stories), and a surprising hymn to individuality and mutual respect (A Little Way Different).

Why do the best ones have to die young? Be Careful is Matthew McAnuff‘s testament, and the album is a strong testimonial that we have lost a talent that was so much more than just a one-hit wonder. You won‘t be forgotten, Matthew!

Matthew McAnuff - Be Careful (2013) {Chapter Two-Wagram Music 3279792}

tracklist:
01. Jah Bless
02. Midnight Rolling
03. No Segregation
04. Make Up Stories
05. A Little Way Different
06. Trod On
07. African Chanting
08. Book Of Life
09. Move Out Of Babylon
10. No Run
11. I Know
12. Be Careful
13. Brainwash

EAC log
Exact Audio Copy V1.0 beta 3 from 29. August 2011

EAC extraction logfile from 1. September 2014, 21:10

Matthew McAnuff / Be Careful

Used drive : TSSTcorp CDDVDW Adapter: 0 ID: 0

Read mode : Secure
Utilize accurate stream : Yes
Defeat audio cache : Yes
Make use of C2 pointers : No

Read offset correction : 6
Overread into Lead-In and Lead-Out : No
Fill up missing offset samples with silence : Yes
Delete leading and trailing silent blocks : No
Null samples used in CRC calculations : Yes
Used interface : Native Win32 interface for Win NT & 2000
Gap handling : Appended to previous track

Used output format : User Defined Encoder
Selected bitrate : 128 kBit/s
Quality : High
Add ID3 tag : No
Command line compressor : C:Program Files (x86)Exact Audio CopyFlacflac.exe
Additional command line options : -8 -V -T "ARTIST=%artist%" -T "TITLE=%title%" -T "ALBUM=%albumtitle%" -T "DATE=%year%" -T "TRACKNUMBER=%tracknr%" -T "TOTALTRACKS=%numtracks%" -T "GENRE=%genre%" -T "ALBUMARTIST=%albumartist%" -T "ALBUM ARTIST=%albumartist%" -T "COMMENT=EAC Secure Mode, Test & Copy, AccurateRip, FLAC -8" %source%

TOC of the extracted CD

Track | Start | Length | Start sector | End sector
––––––––––––––––––––––––––––-
1 | 0:00.00 | 3:46.42 | 0 | 16991
2 | 3:46.42 | 3:19.15 | 16992 | 31931
3 | 7:05.57 | 4:14.20 | 31932 | 51001
4 | 11:20.02 | 3:23.66 | 51002 | 66292
5 | 14:43.68 | 3:48.06 | 66293 | 83398
6 | 18:31.74 | 4:16.52 | 83399 | 102650
7 | 22:48.51 | 5:13.70 | 102651 | 126195
8 | 28:02.46 | 4:13.37 | 126196 | 145207
9 | 32:16.08 | 3:47.72 | 145208 | 162304
10 | 36:04.05 | 3:51.64 | 162305 | 179693
11 | 39:55.69 | 4:29.59 | 179694 | 199927
12 | 44:25.53 | 3:54.41 | 199928 | 217518
13 | 48:20.19 | 3:05.31 | 217519 | 231424

Track 1

Filename C:AddisistheGodFlac1 – Jah Bless.wav

Pre-gap length 0:00:02.00

Peak level 99.8 %
Extraction speed 2.7 X
Track quality 100.0 %
Test CRC 28214BEA
Copy CRC 28214BEA
Accurately ripped (confidence 2) [BECADAA6] (AR v2)
Copy OK

Track 2

Filename C:AddisistheGodFlac2 – Midnight Rolling.wav

Pre-gap length 0:00:00.69

Peak level 94.1 %
Extraction speed 2.3 X
Track quality 99.9 %
Test CRC 6AF334D2
Copy CRC 6AF334D2
Accurately ripped (confidence 2) [BB93E2E4] (AR v2)
Copy OK

Track 3

Filename C:AddisistheGodFlac3 – No Segregation.wav

Pre-gap length 0:00:00.63

Peak level 99.8 %
Extraction speed 2.7 X
Track quality 99.9 %
Test CRC 792F69D7
Copy CRC 792F69D7
Accurately ripped (confidence 2) [0297AF29] (AR v2)
Copy OK

Track 4

Filename C:AddisistheGodFlac4 – Make Up Stories.wav

Pre-gap length 0:00:00.61

Peak level 99.5 %
Extraction speed 3.4 X
Track quality 100.0 %
Test CRC 1CAEEE48
Copy CRC 1CAEEE48
Accurately ripped (confidence 2) [9550DA7B] (AR v2)
Copy OK

Track 5

Filename C:AddisistheGodFlac5 – A Little Way Different.wav

Pre-gap length 0:00:01.02

Peak level 99.8 %
Extraction speed 3.0 X
Track quality 99.9 %
Test CRC E7239540
Copy CRC E7239540
Accurately ripped (confidence 2) [551BA2F8] (AR v2)
Copy OK

Track 6

Filename C:AddisistheGodFlac6 – Trod On.wav

Pre-gap length 0:00:00.72

Peak level 99.3 %
Extraction speed 4.0 X
Track quality 100.0 %
Test CRC 86CA6FFA
Copy CRC 86CA6FFA
Accurately ripped (confidence 2) [EAB84C81] (AR v2)
Copy OK

Track 7

Filename C:AddisistheGodFlac7 – African Chanting.wav

Pre-gap length 0:00:00.72

Peak level 99.8 %
Extraction speed 4.3 X
Track quality 100.0 %
Test CRC 48994672
Copy CRC 48994672
Accurately ripped (confidence 2) [4E17DD52] (AR v2)
Copy OK

Track 8

Filename C:AddisistheGodFlac8 – Book Of Life.wav

Pre-gap length 0:00:01.06

Peak level 99.3 %
Extraction speed 4.5 X
Track quality 100.0 %
Test CRC DD919093
Copy CRC DD919093
Accurately ripped (confidence 2) [2EDF1322] (AR v2)
Copy OK

Track 9

Filename C:AddisistheGodFlac9 – Move Out Of Babylon.wav

Pre-gap length 0:00:02.00

Peak level 99.3 %
Extraction speed 4.6 X
Track quality 100.0 %
Test CRC 1CF882EC
Copy CRC 1CF882EC
Accurately ripped (confidence 2) [9D4E192D] (AR v2)
Copy OK

Track 10

Filename C:AddisistheGodFlac10 – No Run.wav

Pre-gap length 0:00:00.50

Peak level 99.8 %
Extraction speed 4.8 X
Track quality 100.0 %
Test CRC 8BEE88CE
Copy CRC 8BEE88CE
Accurately ripped (confidence 2) [7A9BFD7E] (AR v2)
Copy OK

Track 11

Filename C:AddisistheGodFlac11 – I Know.wav

Pre-gap length 0:00:02.08

Peak level 99.7 %
Extraction speed 5.0 X
Track quality 100.0 %
Test CRC 103D775F
Copy CRC 103D775F
Accurately ripped (confidence 2) [20675DBE] (AR v2)
Copy OK

Track 12

Filename C:AddisistheGodFlac12 – Be Careful.wav

Pre-gap length 0:00:01.27

Peak level 99.2 %
Extraction speed 5.1 X
Track quality 100.0 %
Test CRC B63ECEF1
Copy CRC B63ECEF1
Accurately ripped (confidence 2) [201101EC] (AR v2)
Copy OK

Track 13

Filename C:AddisistheGodFlac13 – Brainwash (Tom Fire Feat. Mathew McAnuff).wav

Pre-gap length 0:00:02.00

Peak level 89.0 %
Extraction speed 5.1 X
Track quality 100.0 %
Test CRC BD9C5A10
Copy CRC BD9C5A10
Accurately ripped (confidence 2) [5D9B738C] (AR v2)
Copy OK

All tracks accurately ripped

No errors occurred

End of status report

==== Log checksum 3DFC531976D4A8AB871C2D7F817D4B08CD1163784594917753593B077F971506 ====

Matthew McAnuff - Be Careful (2013) {Chapter Two-Wagram Music 3279792}

Matthew McAnuff - Be Careful (2013) {Chapter Two-Wagram Music 3279792}

thanks to addis…

===

Matthew McAnuff – Be Careful (2013) {Chapter Two-Wagram Music 3279792} Download, Warez, DDL, Free, Full Album, Torrent, Legal.

Download