Mastering QuickBooks 2016 Made Easy Training Tutorial [repost] | ViralVideoPk

Daily Dose of Free Downloads

Mastering QuickBooks 2016 Made Easy Training Tutorial [repost]

Download

Mastering QuickBooks 2016 Made Easy Training Tutorial [repost]

Mastering QuickBooks 2016 Made Easy Training Tutorial
WEBRip | English | MP4 | 1280 x 720 | AVC ~258 kbps | 15 fps
AAC | 66.2 Kbps | 44.1 KHz | 2 channels | 06:44:52 | 1005.6 MB
Genre: eLearning Video / Business

Learn QuickBooks Pro 2016 accounting software with this comprehensive course from TeachUcomp, Inc. Mastering QuickBooks Made Easy features 184 video lessons with over 9 hours of introductory through advanced instruction. Watch, listen and learn as your expert instructor guides you through each lesson step-by-step. During this media-rich learning experience, you will see each function performed just as if your instructor were there with you.

Reinforce your learning with the text of our two printable classroom instruction manuals (Introductory and Advanced), additional images and practice exercises. You will learn how to set up a QuickBooks company file, pay employees and vendors, create custom reports, reconcile your accounts, use estimating, time tracking and much more. Whether you are completely new to QuickBooks or upgrading from an older version, this course will empower you with the knowledge and skills necessary to be a proficient user. We have incorporated years of classroom training experience and teaching techniques to develop an easy-to-use course that you can customize to meet your personal learning needs. Simply launch the easy-to-use interface, click to start a video lesson or open one of the manuals and you are on your way to mastering QuickBooks.

also You can watch my other last: Business-posts

MediaInfo:
General
Complete name : 002 Creating an Invoice.mp4
Format : MPEG-4
Format profile : Base Media
Codec ID : isom
File size : 6.29 MiB
Duration : 2mn 41s
Overall bit rate mode : Variable
Overall bit rate : 327 Kbps
Encoded date : UTC 2015-10-26 20:30:37
Tagged date : UTC 2015-10-26 20:30:37

Video
ID : 1
Format : AVC
Format/Info : Advanced Video Codec
Format profile : Baseline@L3.1
Format settings, CABAC : No
Format settings, ReFrames : 3 frames
Format settings, GOP : M=1, N=50
Codec ID : avc1
Codec ID/Info : Advanced Video Coding
Duration : 2mn 41s
Bit rate : 258 Kbps
Maximum bit rate : 1 190 Kbps
Width : 1 280 pixels
Height : 720 pixels
Display aspect ratio : 16:9
Frame rate mode : Constant
Frame rate : 15.000 fps
Color space : YUV
Chroma subsampling : 4:2:0
Bit depth : 8 bits
Scan type : Progressive
Bits/(Pixel*Frame) : 0.019
Stream size : 4.97 MiB (79%)
Writing library : Zencoder Video Encoding System
Encoded date : UTC 2015-10-26 20:30:18
Tagged date : UTC 2015-10-26 20:30:37

Audio
ID : 2
Format : AAC
Format/Info : Advanced Audio Codec
Format profile : LC
Codec ID : 40
Duration : 2mn 41s
Bit rate mode : Variable
Bit rate : 66.2 Kbps
Maximum bit rate : 77.3 Kbps
Channel(s) : 2 channels
Channel positions : Front: L R
Sampling rate : 44.1 KHz
Compression mode : Lossy
Stream size : 1.28 MiB (20%)
Encoded date : UTC 2015-10-26 20:30:18
Tagged date : UTC 2015-10-26 20:30:37

Screenshots

Mastering QuickBooks 2016 Made Easy Training Tutorial [repost]

Mastering QuickBooks 2016 Made Easy Training Tutorial [repost]

Mastering QuickBooks 2016 Made Easy Training Tutorial [repost]

Mastering QuickBooks 2016 Made Easy Training Tutorial [repost]

Mastering QuickBooks 2016 Made Easy Training Tutorial [repost]

Exclusive eLearning Videos ParRus-blogadd to bookmarks

Mastering QuickBooks 2016 Made Easy Training Tutorial [repost]

Mastering QuickBooks 2016 Made Easy Training Tutorial [repost] Download, Warez, DDL, Free, Torrent, Legal.

Download


  • Recent Posts

  • Recent Tags