Marvin Gaye – M.P.G. (1969)

Download
Marvin Gaye - M.P.G. (1969)

Marvin Gaye – M.P.G. (1969)
EAC | Flac(Image) + Cue + Log & MP3 CBR 320Kbps
1993 | Motown, 3746351252 | ~ 241 or 94 Mb | Scans Included
Funk, Soul

An underrated late ’60s album, this one has sometimes been overlooked because it seemed like a generic throwaway. But it included some outstanding songs. Motown wisely has included it on their list of Gaye albums that got reissued on CD.

by Ron Wynn, allmusic

Marvin Gaye – M.P.G. (1969):

Marvin Gaye - M.P.G. (1969)

Tracklist:

01 Too Busy Thinking About My Baby 2:57
02. This Magic Moment 2:39
03. That’s The Way Love Is 3:40
04. The End Of Our Road 2:49
05. Seek And You Shall Find 3:39
06. Memories 2:44
07. Only A Lonely Man Would Know 2:55
08. It’s A Bitter Pill To Swallow 3:11
09. More Than A Heart Can Stand 2:55
10. Try My True Love 2:56
11. I Got To Get To California 2:51
12. It Don’t Take Much To Keep Me 2:39

EAC Log
Exact Audio Copy V1.0 beta 3 from 29. August 2011

EAC extraction logfile from 18. October 2016, 18:37

Marvin Gaye / M.P.G. [1993 Motown Records]

Used drive : PLEXTOR DVDR PX-760A Adapter: 3 ID: 0

Read mode : Secure
Utilize accurate stream : Yes
Defeat audio cache : Yes
Make use of C2 pointers : No

Read offset correction : 30
Overread into Lead-In and Lead-Out : No
Fill up missing offset samples with silence : Yes
Delete leading and trailing silent blocks : No
Null samples used in CRC calculations : Yes
Used interface : Native Win32 interface for Win NT & 2000
Gap handling : Appended to previous track

Used output format : User Defined Encoder
Selected bitrate : 1024 kBit/s
Quality : High
Add ID3 tag : No
Command line compressor : C:Program FilesExact Audio CopyFLACFLAC.EXE
Additional command line options : -8 -V -T "ARTIST=%artist%" -T "TITLE=%title%" -T "ALBUM=%albumtitle%" -T "DATE=%year%" -T "TRACKNUMBER=%tracknr%" -T "GENRE=%genre%" -T "COMMENT=%comment%" %source% -o %dest%

TOC of the extracted CD

Track | Start | Length | Start sector | End sector
––––––––––––––––––––––––––––-
1 | 0:00.00 | 2:56.65 | 0 | 13264
2 | 2:56.65 | 2:41.72 | 13265 | 25411
3 | 5:38.62 | 3:43.45 | 25412 | 42181
4 | 9:22.32 | 2:47.20 | 42182 | 54726
5 | 12:09.52 | 3:40.28 | 54727 | 71254
6 | 15:50.05 | 2:47.57 | 71255 | 83836
7 | 18:37.62 | 3:02.68 | 83837 | 97554
8 | 21:40.55 | 3:12.47 | 97555 | 112001
9 | 24:53.27 | 2:57.50 | 112002 | 125326
10 | 27:51.02 | 2:57.38 | 125327 | 138639
11 | 30:48.40 | 2:53.27 | 138640 | 151641
12 | 33:41.67 | 2:40.05 | 151642 | 163646

Track 1

Filename C:Marvin Gaye – M.P.G. [1993 Motown Records]1 – Too Busy Thinking About My Baby.wav

Pre-gap length 0:00:02.00

Peak level 100.0 %
Extraction speed 2.1 X
Track quality 100.0 %
Test CRC B2B748C9
Copy CRC B2B748C9
Track not present in AccurateRip database
Copy OK

Track 2

Filename C:Marvin Gaye – M.P.G. [1993 Motown Records]2 – This Magic Moment.wav

Pre-gap length 0:00:00.55

Peak level 93.7 %
Extraction speed 2.0 X
Track quality 100.0 %
Test CRC F9086FF0
Copy CRC F9086FF0
Track not present in AccurateRip database
Copy OK

Track 3

Filename C:Marvin Gaye – M.P.G. [1993 Motown Records]3 – That’s the Way Love Is.wav

Pre-gap length 0:00:00.65

Peak level 100.0 %
Extraction speed 2.1 X
Track quality 100.0 %
Test CRC BCEA3DC0
Copy CRC BCEA3DC0
Track not present in AccurateRip database
Copy OK

Track 4

Filename C:Marvin Gaye – M.P.G. [1993 Motown Records]4 – The End of Our Road.wav

Pre-gap length 0:00:01.32

Peak level 100.0 %
Extraction speed 2.0 X
Track quality 100.0 %
Test CRC A8D384D4
Copy CRC A8D384D4
Track not present in AccurateRip database
Copy OK

Track 5

Filename C:Marvin Gaye – M.P.G. [1993 Motown Records]5 – Seek and You Shall Find.wav

Pre-gap length 0:00:00.72

Peak level 100.0 %
Extraction speed 2.1 X
Track quality 100.0 %
Test CRC 257402C7
Copy CRC 257402C7
Track not present in AccurateRip database
Copy OK

Track 6

Filename C:Marvin Gaye – M.P.G. [1993 Motown Records]6 – Memories.wav

Pre-gap length 0:00:01.18

Peak level 100.0 %
Extraction speed 2.0 X
Track quality 100.0 %
Test CRC EFB71D8E
Copy CRC EFB71D8E
Track not present in AccurateRip database
Copy OK

Track 7

Filename C:Marvin Gaye – M.P.G. [1993 Motown Records]7 – Only a Lonely Man Would Know.wav

Pre-gap length 0:00:01.30

Peak level 100.0 %
Extraction speed 1.3 X
Track quality 99.9 %
Test CRC 5FDDCBA5
Copy CRC 5FDDCBA5
Track not present in AccurateRip database
Copy OK

Track 8

Filename C:Marvin Gaye – M.P.G. [1993 Motown Records]8 – It’s a Bitter Pill to Swallow.wav

Pre-gap length 0:00:01.18

Peak level 100.0 %
Extraction speed 2.1 X
Track quality 100.0 %
Test CRC 07CA5AAB
Copy CRC 07CA5AAB
Track not present in AccurateRip database
Copy OK

Track 9

Filename C:Marvin Gaye – M.P.G. [1993 Motown Records]9 – More Than a Heart Can Stand.wav

Pre-gap length 0:00:01.22

Peak level 100.0 %
Extraction speed 2.1 X
Track quality 100.0 %
Test CRC 5F94B2FD
Copy CRC 5F94B2FD
Track not present in AccurateRip database
Copy OK

Track 10

Filename C:Marvin Gaye – M.P.G. [1993 Motown Records]10 – Try My True Love.wav

Pre-gap length 0:00:00.60

Peak level 100.0 %
Extraction speed 2.1 X
Track quality 100.0 %
Test CRC D1CE2000
Copy CRC D1CE2000
Track not present in AccurateRip database
Copy OK

Track 11

Filename C:Marvin Gaye – M.P.G. [1993 Motown Records]11 – I Got to Get to California.wav

Pre-gap length 0:00:00.48

Peak level 100.0 %
Extraction speed 2.0 X
Track quality 100.0 %
Test CRC CFFEF072
Copy CRC CFFEF072
Track not present in AccurateRip database
Copy OK

Track 12

Filename C:Marvin Gaye – M.P.G. [1993 Motown Records]12 – It Don’t Take Much to Keep Me.wav

Pre-gap length 0:00:01.05

Peak level 100.0 %
Extraction speed 2.0 X
Track quality 100.0 %
Test CRC 1AAA56AA
Copy CRC 1AAA56AA
Track not present in AccurateRip database
Copy OK

None of the tracks are present in the AccurateRip database

No errors occurred

End of status report

==== Log checksum 69D5B807A06E8EFC1919C754E3AF7DF90D0F04FED664702083D1542F5D1B28B9 ====

DR Log
foobar2000 1.2.9 / Dynamic Range Meter 1.1.1
log date: 2016-12-22 01:01:11

––––––––––––––––––––––––––––––––––––––––
Analyzed: Marvin Gaye / M.P.G. [1993 Motown Records]
––––––––––––––––––––––––––––––––––––––––

DR Peak RMS Duration Track
––––––––––––––––––––––––––––––––––––––––
DR14 0.00 dB -15.59 dB 2:57 01-Too Busy Thinking About My Baby
DR12 -0.57 dB -15.35 dB 2:42 02-This Magic Moment
DR13 0.00 dB -14.64 dB 3:44 03-That’s the Way Love Is
DR13 0.00 dB -14.70 dB 2:47 04-The End of Our Road
DR13 0.00 dB -15.42 dB 3:40 05-Seek and You Shall Find
DR13 0.00 dB -14.82 dB 2:48 06-Memories
DR12 0.00 dB -14.14 dB 3:03 07-Only a Lonely Man Would Know
DR13 0.00 dB -14.93 dB 3:13 08-It’s a Bitter Pill to Swallow
DR13 0.00 dB -13.98 dB 2:58 09-More Than a Heart Can Stand
DR13 0.00 dB -15.62 dB 2:58 10-Try My True Love
DR13 0.00 dB -14.63 dB 2:53 11-I Got to Get to California
DR13 0.00 dB -14.34 dB 2:40 12-It Don’t Take Much to Keep Me
––––––––––––––––––––––––––––––––––––––––

Number of tracks: 12
Official DR value: DR13

Samplerate: 44100 Hz
Channels: 2
Bits per sample: 16
Bitrate: 867 kbps
Codec: FLAC

CUETools Log
[CUETools log; Date: 22.12.2016 1:01:00; Version: 2.1.4]
[CTDB TOCID: ohGjk5T4HynNxqT95bW3tGhYQHs-] disk not present in database.
[AccurateRip ID: 001078c3-0099b53a-8e08850c] found.
Track [ CRC | V2 ] Status
01 [06a93624|6694c42c] (0+1/1) Accurately ripped
02 [f5858f4e|a0784800] (0+1/1) Accurately ripped
03 [bdc2f250|58c61963] (0+1/1) Accurately ripped
04 [d1ee8856|134a6b80] (0+1/1) Accurately ripped
05 [e2aa553b|97aa8c89] (0+1/1) Accurately ripped
06 [89f57637|26791d56] (0+1/1) Accurately ripped
07 [89662b8b|3345985a] (0+1/1) Accurately ripped
08 [6fce664d|97cfa752] (0+1/1) Accurately ripped
09 [8ae2de89|c81d6b83] (0+1/1) Accurately ripped
10 [5c899087|5c8a3804] (0+1/1) Accurately ripped
11 [0a9afcd1|1f247c02] (0+1/1) Accurately ripped
12 [f580b573|ed4efb26] (0+1/1) Accurately ripped

Track Peak [ CRC32 ] [W/O NULL] [ LOG ]
– 100,0 [E0A3AEB5] [C72EA3FB]
01 100,0 [B2B748C9] [6C6264B7] CRC32
02 93,7 [F9086FF0] [BC17979C] CRC32
03 100,0 [BCEA3DC0] [BEA01FD9] CRC32
04 100,0 [A8D384D4] [8907F9D6] CRC32
05 100,0 [257402C7] [280C9517] CRC32
06 100,0 [EFB71D8E] [4EB682A9] CRC32
07 100,0 [5FDDCBA5] [72B664F0] CRC32
08 100,0 [07CA5AAB] [CF402C3F] CRC32
09 100,0 [5F94B2FD] [4D02711A] CRC32
10 100,0 [D1CE2000] [4E9080F4] CRC32
11 100,0 [CFFEF072] [21CF2E52] CRC32
12 100,0 [1AAA56AA] [3B0E583C] CRC32

Marvin Gaye - M.P.G. (1969)

All thanks go to artmuss

Download Marvin Gaye – M.P.G. (1969):

Marvin Gaye – M.P.G. (1969) Download, Warez, DDL, Free, Full Album, Torrent, Legal.

Download