Marty Robbins – Gunfighter Ballads And Trail Songs (1959) & More Gunfighter Ballads And Trail Songs (1960) (2on1 rel 2012)

Download
Marty Robbins - Gunfighter Ballads And Trail Songs (1959) & More Gunfighter Ballads And Trail Songs (1960) (2on1 rel 2012)

Marty Robbins – Gunfighter Ballads And Trail Songs (1959) & More Gunfighter Ballads And Trail Songs (1960) (2on1 rel 2012)
EAC rip (secure mode) | FLAC (tracks)+CUE+LOG -> 484 Mb | MP3 @320 -> 181 Mb
Full Artwork @ 300 dpi (png) -> 46 Mb | 5% repair rar
© 1959-1960, 2012 Hoodoo Records | 263419
Country / Cowboy / Traditional Country / Country-Pop / Nashville Sound

The single most influential album of Western songs in post-World War II American music, Gunfighter Ballads and Trail Songs touched a whole range of unexpected bases in its own time and has endured extraordinarily well across the ensuing four decades. The longevity of the album’s appeal is a result of Marty Robbins’ love of the repertory at hand and the mix of his youthful dynamism and prodigious talent that he brought to the recordings, and the use of the best music production techniques of the era. Add to that the presence of a pair of killer original songs that were ready-made singles, "El Paso" and "Big Iron," and a third, "The Master’s Call," that was startlingly personal, and the results are well-nigh irresistible. The range of material on this album is extraordinary, from love songs to spirituals, songs so old they have no known author, and originals by the singer, all of which seamlessly fit together. Robbins’ subject is mostly the west of myth and movie, which benefits from his ability as a storyteller – "Big Iron" or "El Paso" may tell tales heard or seen 100 times onscreen, but he makes listeners feel like this is the first time they’re hearing them, complete with excitement and anticipation of a poet in the middle of a spellbinding recital. The guitars, played by Robbins, Grady Martin, and Jack Pruett, and Bob Moore’s upright bass all have a crisp sound, and the Glaser Brothers’ understated vocal accompaniment embellishes the singing in key spots without intruding on the spell cast by Robbins’ singing. Gunfighter Ballads and Trail Songs has been reissued several times on CD, paired with its follow-up, More Gunfighter Ballads and Trail Songs, as part of Bear Family Records’ Under Western Skies box, and in an expanded edition in 1999 with three bonus tracks. "The Hanging Tree," written for the 1959 movie of the same name, was actually Robbins’ first commercial recording of a cowboy song, predating the album by six months. Meanwhile, "Saddle Tramp" was a Robbins original recorded eight months after the album – their presence adds another significant dimension to the album and its scope. There was a reason why the Western movies and television shows started to be called "horse operas" – at their best, they had a sense of drama and were driven by charismatic leads. "Saddle Tramp" and "The Hanging Tree" both show Robbins as a kind of cowboy heldentenor creating two beautifully wrought vestpocket Western dramas that significantly add to the appeal of the original album, with the chorus on "Saddle Tramp" among Robbins’ most beautiful moments on record. –Bruce Eder, AllMusicGuide

The follow-up to Marty Robbins’ 1959 hit album shows him on the cover looking for all the world like the reincarnation of actor William S. Hart, the greatest cowboy hero of the silent-screen era. In a sense, the repertory reflects the pose on the cover; it is similar to the earlier album, with the sound a little more stripped down in the vocal department and perhaps less romanticized than the earlier record. Robbins’ originals are authored in an authentically vintage style, interspersed with public domain titles that are the real article, some established works by Bob Nolan of the Sons of the Pioneers, and a handful of new compositions (notably by Jim Glaser). There’s nothing as beautifully compelling as "Big Iron" or "El Paso," but tracks like "Streets of Laredo," "Song of the Bandit," and "Little Joe, the Wrangler" are beguiling on a more subtle level. The album was a success, albeit not on the same level as its predecessor. –Bruce Eder, AllMusicGuide

Marty Robbins - Gunfighter Ballads And Trail Songs (1959) & More Gunfighter Ballads And Trail Songs (1960) (2on1 rel 2012)

Track Listing:
Gunfighter Ballads And Trail Songs (1959)

1. Big Iron
2. Cool Water
3. Billy The Kid
4. A Hundred And Sixty Acres
5. They’re Hanging Me Tonight
6. The Strawberry Roan
7. El Paso
8. In The Valley
9. The Master’s Call
10. Running Gun
11. The Little Green Valley
12. Utah Carol

More Gunfighter Ballads And Trail Songs (1960)
13. San Angelo
14. Praire Fire
15. The Streets Of Laredo
16. Song Of The Bandit
17. I’ve Got No Use For The Women
18. Five Brothers
19. Little Joe The Wrangler
20. Ride, Cowboy Ride
21. This Peaceful Sod
22. She Was Young And She Was Pretty
23. My Love

Bonus Tracks
24. The Hanging Tree
25. Saddle Tramp
26. The Story Of My Life
27. Mean Mama Blues

Two classic LPs that really shows why it’s called Country & Western!

EAC log
Exact Audio Copy V1.2 from 12. August 2016

EAC extraction logfile from 8. October 2016, 16:15

Marty Robbins / Gunfighter Ballads And Trail Songs / More Gunfighter Ballads And Trail Songs

Used drive : TSSTcorpCDDVDW SH-224BB Adapter: 1 ID: 0

Read mode : Secure
Utilize accurate stream : Yes
Defeat audio cache : Yes
Make use of C2 pointers : No

Read offset correction : 6
Overread into Lead-In and Lead-Out : No
Fill up missing offset samples with silence : Yes
Delete leading and trailing silent blocks : No
Null samples used in CRC calculations : Yes
Used interface : Native Win32 interface for Win NT & 2000
Gap handling : Appended to previous track

Used output format : User Defined Encoder
Selected bitrate : 768 kBit/s
Quality : High
Add ID3 tag : No
Command line compressor : C:Program Files (x86)Exact Audio CopyFlacflac.exe
Additional command line options : -8 -V -T "ARTIST=%artist%" -T "TITLE=%title%" -T "ALBUM=%albumtitle%" -T "DATE=%year%" -T "TRACKNUMBER=%tracknr%" -T "TOTALTRACKS=%numtracks%" -T "GENRE=%genre%" -T "ALBUMARTIST=%albumartist%" -T "ALBUM ARTIST=%albumartist%" -T "COMMENT=EAC Secure Mode, Test & Copy, AccurateRip, FLAC -8" %source%

TOC of the extracted CD

Track | Start | Length | Start sector | End sector
––––––––––––––––––––––––––––-
1 | 0:00.00 | 3:59.47 | 0 | 17971
2 | 3:59.47 | 3:10.47 | 17972 | 32268
3 | 7:10.19 | 2:19.57 | 32269 | 42750
4 | 9:30.01 | 1:42.38 | 42751 | 50438
5 | 11:12.39 | 3:06.29 | 50439 | 64417
6 | 14:18.68 | 3:25.00 | 64418 | 79792
7 | 17:43.68 | 4:21.10 | 79793 | 99377
8 | 22:05.03 | 1:50.00 | 99378 | 107627
9 | 23:55.03 | 3:07.19 | 107628 | 121671
10 | 27:02.22 | 2:12.00 | 121672 | 131571
11 | 29:14.22 | 2:27.57 | 131572 | 142653
12 | 31:42.04 | 3:14.47 | 142654 | 157250
13 | 34:56.51 | 5:42.19 | 157251 | 182919
14 | 40:38.70 | 2:17.19 | 182920 | 193213
15 | 42:56.14 | 2:47.29 | 193214 | 205767
16 | 45:43.43 | 2:31.66 | 205768 | 217158
17 | 48:15.34 | 3:23.10 | 217159 | 232393
18 | 51:38.44 | 2:13.19 | 232394 | 242387
19 | 53:51.63 | 4:09.10 | 242388 | 261072
20 | 58:00.73 | 3:15.66 | 261073 | 275763
21 | 61:16.64 | 1:55.66 | 275764 | 284454
22 | 63:12.55 | 2:59.29 | 284455 | 297908
23 | 66:12.09 | 1:47.52 | 297909 | 305985
24 | 67:59.61 | 2:52.47 | 305986 | 318932
25 | 70:52.33 | 2:05.38 | 318933 | 328345
26 | 72:57.71 | 2:31.47 | 328346 | 339717
27 | 75:29.43 | 2:11.38 | 339718 | 349580

Track 1

Filename C:RipsMarty Robbins – Gunfighter Ballads And Trail Songs (1959) & More Gunfighter Ballads And Trail Songs (1960) [FLAC] (2on1 2012)1 – Big Iron.wav

Pre-gap length 0:00:02.00

Peak level 92.2 %
Extraction speed 1.9 X
Track quality 100.0 %
Test CRC A7C5A255
Copy CRC A7C5A255
Accurately ripped (confidence 2) [67F04DA4] (AR v2)
Copy OK

Track 2

Filename C:RipsMarty Robbins – Gunfighter Ballads And Trail Songs (1959) & More Gunfighter Ballads And Trail Songs (1960) [FLAC] (2on1 2012)2 – Cool Water.wav

Pre-gap length 0:00:02.00

Peak level 92.2 %
Extraction speed 2.0 X
Track quality 100.0 %
Test CRC 2AD9082A
Copy CRC 2AD9082A
Accurately ripped (confidence 2) [DAAA0086] (AR v2)
Copy OK

Track 3

Filename C:RipsMarty Robbins – Gunfighter Ballads And Trail Songs (1959) & More Gunfighter Ballads And Trail Songs (1960) [FLAC] (2on1 2012)3 – Billy The Kid.wav

Pre-gap length 0:00:02.00

Peak level 92.2 %
Extraction speed 1.5 X
Track quality 99.9 %
Test CRC 3148E18B
Copy CRC 3148E18B
Accurately ripped (confidence 2) [37C8ECFA] (AR v2)
Copy OK

Track 4

Filename C:RipsMarty Robbins – Gunfighter Ballads And Trail Songs (1959) & More Gunfighter Ballads And Trail Songs (1960) [FLAC] (2on1 2012)4 – A Hundred And Sixty Acres.wav

Pre-gap length 0:00:02.00

Peak level 92.2 %
Extraction speed 1.9 X
Track quality 100.0 %
Test CRC B21588B7
Copy CRC B21588B7
Accurately ripped (confidence 2) [B6B7D899] (AR v2)
Copy OK

Track 5

Filename C:RipsMarty Robbins – Gunfighter Ballads And Trail Songs (1959) & More Gunfighter Ballads And Trail Songs (1960) [FLAC] (2on1 2012)5 – They’re Hanging Me Tonight.wav

Pre-gap length 0:00:02.00

Peak level 92.2 %
Extraction speed 2.2 X
Track quality 100.0 %
Test CRC 324BC98A
Copy CRC 324BC98A
Accurately ripped (confidence 2) [E239AD16] (AR v2)
Copy OK

Track 6

Filename C:RipsMarty Robbins – Gunfighter Ballads And Trail Songs (1959) & More Gunfighter Ballads And Trail Songs (1960) [FLAC] (2on1 2012)6 – The Strawberry Roan.wav

Pre-gap length 0:00:02.00

Peak level 92.2 %
Extraction speed 2.4 X
Track quality 100.0 %
Test CRC 88D49918
Copy CRC 88D49918
Accurately ripped (confidence 2) [650823D3] (AR v2)
Copy OK

Track 7

Filename C:RipsMarty Robbins – Gunfighter Ballads And Trail Songs (1959) & More Gunfighter Ballads And Trail Songs (1960) [FLAC] (2on1 2012)7 – El Paso.wav

Pre-gap length 0:00:02.00

Peak level 92.2 %
Extraction speed 2.6 X
Track quality 100.0 %
Test CRC CB4EEDDF
Copy CRC CB4EEDDF
Accurately ripped (confidence 2) [D9D6F9CC] (AR v2)
Copy OK

Track 8

Filename C:RipsMarty Robbins – Gunfighter Ballads And Trail Songs (1959) & More Gunfighter Ballads And Trail Songs (1960) [FLAC] (2on1 2012)8 – In The Valley.wav

Pre-gap length 0:00:02.00

Peak level 92.2 %
Extraction speed 2.3 X
Track quality 100.0 %
Test CRC 6686DEAE
Copy CRC 6686DEAE
Accurately ripped (confidence 2) [C8946064] (AR v2)
Copy OK

Track 9

Filename C:RipsMarty Robbins – Gunfighter Ballads And Trail Songs (1959) & More Gunfighter Ballads And Trail Songs (1960) [FLAC] (2on1 2012)9 – The Master’s Call.wav

Pre-gap length 0:00:02.00

Peak level 92.2 %
Extraction speed 2.0 X
Track quality 99.9 %
Test CRC 9E6F4762
Copy CRC 9E6F4762
Accurately ripped (confidence 2) [AE079DCF] (AR v2)
Copy OK

Track 10

Filename C:RipsMarty Robbins – Gunfighter Ballads And Trail Songs (1959) & More Gunfighter Ballads And Trail Songs (1960) [FLAC] (2on1 2012)10 – Running Gun.wav

Pre-gap length 0:00:02.00

Peak level 92.2 %
Extraction speed 2.5 X
Track quality 100.0 %
Test CRC CB84049B
Copy CRC CB84049B
Accurately ripped (confidence 2) [0FCD3425] (AR v2)
Copy OK

Track 11

Filename C:RipsMarty Robbins – Gunfighter Ballads And Trail Songs (1959) & More Gunfighter Ballads And Trail Songs (1960) [FLAC] (2on1 2012)11 – The Little Green Valley.wav

Pre-gap length 0:00:02.00

Peak level 92.2 %
Extraction speed 2.6 X
Track quality 100.0 %
Test CRC 92677C49
Copy CRC 92677C49
Accurately ripped (confidence 2) [86438AC4] (AR v2)
Copy OK

Track 12

Filename C:RipsMarty Robbins – Gunfighter Ballads And Trail Songs (1959) & More Gunfighter Ballads And Trail Songs (1960) [FLAC] (2on1 2012)12 – Utah Carol.wav

Pre-gap length 0:00:02.00

Peak level 92.2 %
Extraction speed 2.8 X
Track quality 100.0 %
Test CRC BFACAAB7
Copy CRC BFACAAB7
Accurately ripped (confidence 2) [9CDFD21B] (AR v2)
Copy OK

Track 13

Filename C:RipsMarty Robbins – Gunfighter Ballads And Trail Songs (1959) & More Gunfighter Ballads And Trail Songs (1960) [FLAC] (2on1 2012)13 – San Angelo.wav

Pre-gap length 0:00:02.00

Peak level 92.2 %
Extraction speed 2.6 X
Track quality 99.9 %
Test CRC 17A6DB76
Copy CRC 17A6DB76
Accurately ripped (confidence 2) [387B73A1] (AR v2)
Copy OK

Track 14

Filename C:RipsMarty Robbins – Gunfighter Ballads And Trail Songs (1959) & More Gunfighter Ballads And Trail Songs (1960) [FLAC] (2on1 2012)14 – Prairie Fire.wav

Pre-gap length 0:00:02.00

Peak level 92.2 %
Extraction speed 2.9 X
Track quality 100.0 %
Test CRC 9690A7F9
Copy CRC 9690A7F9
Accurately ripped (confidence 2) [DBAD4305] (AR v2)
Copy OK

Track 15

Filename C:RipsMarty Robbins – Gunfighter Ballads And Trail Songs (1959) & More Gunfighter Ballads And Trail Songs (1960) [FLAC] (2on1 2012)15 – The Streets Of Laredo.wav

Pre-gap length 0:00:02.00

Peak level 86.8 %
Extraction speed 3.0 X
Track quality 100.0 %
Test CRC C6FC7F3B
Copy CRC C6FC7F3B
Accurately ripped (confidence 2) [786D6E8D] (AR v2)
Copy OK

Track 16

Filename C:RipsMarty Robbins – Gunfighter Ballads And Trail Songs (1959) & More Gunfighter Ballads And Trail Songs (1960) [FLAC] (2on1 2012)16 – Song Of The Bandit.wav

Pre-gap length 0:00:02.00

Peak level 92.2 %
Extraction speed 3.0 X
Track quality 100.0 %
Test CRC 60846BDE
Copy CRC 60846BDE
Accurately ripped (confidence 2) [6580D25A] (AR v2)
Copy OK

Track 17

Filename C:RipsMarty Robbins – Gunfighter Ballads And Trail Songs (1959) & More Gunfighter Ballads And Trail Songs (1960) [FLAC] (2on1 2012)17 – I’ve Got No Use For The Women.wav

Pre-gap length 0:00:02.00

Peak level 92.2 %
Extraction speed 3.3 X
Track quality 100.0 %
Test CRC EF117ADB
Copy CRC EF117ADB
Accurately ripped (confidence 2) [A4824757] (AR v2)
Copy OK

Track 18

Filename C:RipsMarty Robbins – Gunfighter Ballads And Trail Songs (1959) & More Gunfighter Ballads And Trail Songs (1960) [FLAC] (2on1 2012)18 – Five Brothers.wav

Pre-gap length 0:00:02.00

Peak level 92.2 %
Extraction speed 3.0 X
Track quality 100.0 %
Test CRC 25957D07
Copy CRC 25957D07
Accurately ripped (confidence 2) [08B70E7C] (AR v2)
Copy OK

Track 19

Filename C:RipsMarty Robbins – Gunfighter Ballads And Trail Songs (1959) & More Gunfighter Ballads And Trail Songs (1960) [FLAC] (2on1 2012)19 – Little Joe The Wrangler.wav

Pre-gap length 0:00:02.00

Peak level 92.2 %
Extraction speed 3.5 X
Track quality 100.0 %
Test CRC D48CBC5F
Copy CRC D48CBC5F
Accurately ripped (confidence 2) [8C0C1696] (AR v2)
Copy OK

Track 20

Filename C:RipsMarty Robbins – Gunfighter Ballads And Trail Songs (1959) & More Gunfighter Ballads And Trail Songs (1960) [FLAC] (2on1 2012)20 – Ride, Cowboy Ride.wav

Pre-gap length 0:00:02.00

Peak level 92.2 %
Extraction speed 2.4 X
Track quality 99.9 %
Test CRC 902BEC06
Copy CRC 902BEC06
Accurately ripped (confidence 2) [DF4B0DA4] (AR v2)
Copy OK

Track 21

Filename C:RipsMarty Robbins – Gunfighter Ballads And Trail Songs (1959) & More Gunfighter Ballads And Trail Songs (1960) [FLAC] (2on1 2012)21 – This Peaceful Sod.wav

Pre-gap length 0:00:02.00

Peak level 92.2 %
Extraction speed 1.8 X
Track quality 99.9 %
Test CRC 960F1A40
Copy CRC 960F1A40
Accurately ripped (confidence 2) [1FDF73F6] (AR v2)
Copy OK

Track 22

Filename C:RipsMarty Robbins – Gunfighter Ballads And Trail Songs (1959) & More Gunfighter Ballads And Trail Songs (1960) [FLAC] (2on1 2012)22 – She Was Young And She Was Pretty.wav

Pre-gap length 0:00:02.00

Peak level 92.2 %
Extraction speed 3.5 X
Track quality 100.0 %
Test CRC 2D4D2648
Copy CRC 2D4D2648
Accurately ripped (confidence 2) [63E7F694] (AR v2)
Copy OK

Track 23

Filename C:RipsMarty Robbins – Gunfighter Ballads And Trail Songs (1959) & More Gunfighter Ballads And Trail Songs (1960) [FLAC] (2on1 2012)23 – My Love.wav

Pre-gap length 0:00:02.00

Peak level 92.2 %
Extraction speed 3.2 X
Track quality 100.0 %
Test CRC 618261E3
Copy CRC 618261E3
Accurately ripped (confidence 2) [12198323] (AR v2)
Copy OK

Track 24

Filename C:RipsMarty Robbins – Gunfighter Ballads And Trail Songs (1959) & More Gunfighter Ballads And Trail Songs (1960) [FLAC] (2on1 2012)24 – The Hanging Tree.wav

Pre-gap length 0:00:02.00

Peak level 92.2 %
Extraction speed 2.3 X
Track quality 99.9 %
Test CRC C0735495
Copy CRC C0735495
Accurately ripped (confidence 2) [3CFC2F6A] (AR v2)
Copy OK

Track 25

Filename C:RipsMarty Robbins – Gunfighter Ballads And Trail Songs (1959) & More Gunfighter Ballads And Trail Songs (1960) [FLAC] (2on1 2012)25 – Saddle Tramp.wav

Pre-gap length 0:00:02.00

Peak level 92.2 %
Extraction speed 2.0 X
Track quality 99.9 %
Test CRC 7FAEE6F9
Copy CRC 7FAEE6F9
Accurately ripped (confidence 2) [F01B3F39] (AR v2)
Copy OK

Track 26

Filename C:RipsMarty Robbins – Gunfighter Ballads And Trail Songs (1959) & More Gunfighter Ballads And Trail Songs (1960) [FLAC] (2on1 2012)26 – The Story Of My Life.wav

Pre-gap length 0:00:02.00

Peak level 92.2 %
Extraction speed 3.6 X
Track quality 100.0 %
Test CRC 336671AE
Copy CRC 336671AE
Accurately ripped (confidence 2) [BFABADBD] (AR v2)
Copy OK

Track 27

Filename C:RipsMarty Robbins – Gunfighter Ballads And Trail Songs (1959) & More Gunfighter Ballads And Trail Songs (1960) [FLAC] (2on1 2012)27 – Mean Mama Blues.wav

Pre-gap length 0:00:02.00

Peak level 92.2 %
Extraction speed 2.0 X
Track quality 99.9 %
Test CRC 033905FD
Copy CRC 033905FD
Accurately ripped (confidence 2) [6EA01CE0] (AR v2)
Copy OK

All tracks accurately ripped

No errors occurred

End of status report

–– CUETools DB Plugin V2.1.6

[CTDB TOCID: eGqEYivO4V63eg8WNEXruqIC0lg-] found
Submit result: eGqEYivO4V63eg8WNEXruqIC0lg- has been confirmed
Track | CTDB Status
1 | (4/4) Accurately ripped
2 | (4/4) Accurately ripped
3 | (4/4) Accurately ripped
4 | (4/4) Accurately ripped
5 | (4/4) Accurately ripped
6 | (4/4) Accurately ripped
7 | (4/4) Accurately ripped
8 | (4/4) Accurately ripped
9 | (4/4) Accurately ripped
10 | (4/4) Accurately ripped
11 | (4/4) Accurately ripped
12 | (4/4) Accurately ripped
13 | (4/4) Accurately ripped
14 | (4/4) Accurately ripped
15 | (4/4) Accurately ripped
16 | (4/4) Accurately ripped
17 | (4/4) Accurately ripped
18 | (4/4) Accurately ripped
19 | (4/4) Accurately ripped
20 | (4/4) Accurately ripped
21 | (4/4) Accurately ripped
22 | (4/4) Accurately ripped
23 | (4/4) Accurately ripped
24 | (4/4) Accurately ripped
25 | (4/4) Accurately ripped
26 | (4/4) Accurately ripped
27 | (4/4) Accurately ripped

==== Log checksum D559D3560BEB82C41F1317763D9B45A13299647A5897F39D95ABC19C0BB72A9D ====

Marty Robbins - Gunfighter Ballads And Trail Songs (1959) & More Gunfighter Ballads And Trail Songs (1960) (2on1 rel 2012)

Marty Robbins - Gunfighter Ballads And Trail Songs (1959) & More Gunfighter Ballads And Trail Songs (1960) (2on1 rel 2012)

===

Marty Robbins – Gunfighter Ballads And Trail Songs (1959) & More Gunfighter Ballads And Trail Songs (1960) (2on1 rel 2012) Download, Warez, DDL, Free, Full Album, Torrent, Legal.

Download