Marty Ehrlich's Traveler's Tales – Malinke's Dance (2000)

Download
Marty Ehrlich's Traveler's Tales - Malinke's Dance (2000)

Marty Ehrlich’s Traveler’s Tales – Malinke’s Dance (2000)
EAC Rip | FLAC (tracks+.cue, log) ~ 415.55 Mb + 34.03 Mb (Scans) | 01:09:07
Avant-Garde Jazz, Post-Bop, Free Improvisation | Country: USA | Label: OmniTone (12003)

After a seven-year recording hiatus, Ehrlich’s Travelers Tale quartet revives the spirit of that band with new material and a couple of older faves. Fellow saxophonist Tony Malaby, electric bass guitarist Jerome Harris, and drummer Bobby Previte are in the fold for these highlights of a four-day club date at the Knitting Factory/NYC. Except for the Julius Hemphill post-bop cartoonish, off-kilter harmonic line "Pigskin" with Harris’s two-note bass and Bob Dylan’s pop ballad alto feature for the leader "Tears of Rage," this is a program of Ehrlich’s original, modern creative music. A boppish paeon to Ornette Coleman "Rhymes" kicks off the date, with the two saxes separate and equal. "Story" lines from the soprano (Ehrlich)/tenor (Malaby) front lines with an ostinato bass groove weave through the intricate title track for Malinke Elliott, spaced alto and soprano unison lines swim in funky or swinging marinade during a recapitulation of "North Star," while Ehrlich’s signature pungent alto leads Malaby’s agreeable tenor in the free, open terrain, traded extended lines of "Line on Love."

Based on the changes of "I Remember You" is "Bright Remembered," a solo alto line building with bass, then drums popping and swinging on snare as Malaby decides to go for it as well. Ehrlich’s most memorable writing is heard on "The Cry Of," as churning hand drums with ostinato bass in measures of repeated five’s and four’s extend an invitation to Ehrlich’s flute and Malaby’s tenor in a mysterious Middle Eastern feel, a rather calmed swirling dervish. The familiar but modified "Willy Whippoorwill" tacks on "Steals a Bow," merging from visceral funk to free bridge squawking, a 6/8 counterpoint section, 4/4 unison, and a reggae feel. Ehrlich continues to assert himself as a premier purveyor of current-day jazz, and this is another clear example of his high status in this modern age. Recommended. ~ AllMusic Review by Michael G. Nastos

Marty Ehrlich – alto saxophone, soprano saxophone, flute
Tony Malaby – tenor saxophone, soprano saxophone
Jerome Harris – acoustic bass guitar
Bobby Previte – drums

Unless noted, all compositions by Marty Ehrlich.
Recorded live on 9-12 December 1999 at the Knitting Factory (old Office) in New York.

Track List:
01. Rhymes (8:40)
02. The Cry Of (9:48)
03. Malinke’s Dance (8:16)
04. Line on Love (7:38)
05. Pigskin (6:47) (Julius Hemphill)
06. Tears of Rage (8:09) (Richard Manuel / Bob Dylan)
07. North Star (4:17)
08. Bright Remembered (9:16)
09. Willy Whippoorwill Steals a Bow (5:52)

Marty Ehrlich's Traveler's Tales - Malinke's Dance (2000)

EAC log
Exact Audio Copy V1.3 from 2. September 2016

EAC extraction logfile from 17. August 2017, 11:48

Marty Ehrlich’s Traveler’s Tales / Malinke’s Dance

Used drive : hp CDDVDW SN-208BB Adapter: 1 ID: 0

Read mode : Secure
Utilize accurate stream : Yes
Defeat audio cache : Yes
Make use of C2 pointers : No

Read offset correction : 6
Overread into Lead-In and Lead-Out : No
Fill up missing offset samples with silence : Yes
Delete leading and trailing silent blocks : No
Null samples used in CRC calculations : Yes
Used interface : Native Win32 interface for Win NT & 2000
Gap handling : Appended to previous track

Used output format : User Defined Encoder
Selected bitrate : 768 kBit/s
Quality : High
Add ID3 tag : No
Command line compressor : C:Program Files (x86)Exact Audio CopyFlacflac.exe
Additional command line options : -V -8 -T "Genre=%genre%" -T "Artist=%artist%" -T "Title=%title%" -T "Album=%albumtitle%" -T "Date=%year%" -T "Tracknumber=%tracknr%" -T "Comment=%comment%" %source%

TOC of the extracted CD

Track | Start | Length | Start sector | End sector
––––––––––––––––––––––––––––-
1 | 0:00.00 | 8:41.11 | 0 | 39085
2 | 8:41.11 | 9:51.67 | 39086 | 83477
3 | 18:33.03 | 8:19.06 | 83478 | 120908
4 | 26:52.09 | 7:41.57 | 120909 | 155540
5 | 34:33.66 | 6:50.58 | 155541 | 186348
6 | 41:24.49 | 8:10.74 | 186349 | 223172
7 | 49:35.48 | 4:20.59 | 223173 | 242731
8 | 53:56.32 | 9:19.00 | 242732 | 284656
9 | 63:15.32 | 5:51.64 | 284657 | 311045

Track 1

Filename E:MusicCDRipMarty Ehrlich’s Traveler’s Tales – Malinke’s Dance (2000) [FLAC] {OmniTone 12003}1 – Rhymes.wav

Pre-gap length 0:00:02.00

Peak level 92.8 %
Extraction speed 2.6 X
Track quality 100.0 %
Test CRC 5AEBA211
Copy CRC 5AEBA211
Accurately ripped (confidence 4) [42102119] (AR v1)
Copy OK

Track 2

Filename E:MusicCDRipMarty Ehrlich’s Traveler’s Tales – Malinke’s Dance (2000) [FLAC] {OmniTone 12003}2 – The Cry Of.wav

Pre-gap length 0:00:01.55

Peak level 88.8 %
Extraction speed 3.1 X
Track quality 100.0 %
Test CRC 21AB3320
Copy CRC 21AB3320
Accurately ripped (confidence 4) [515FB39A] (AR v1)
Copy OK

Track 3

Filename E:MusicCDRipMarty Ehrlich’s Traveler’s Tales – Malinke’s Dance (2000) [FLAC] {OmniTone 12003}3 – Malinke’s Dance.wav

Pre-gap length 0:00:03.55

Peak level 94.7 %
Extraction speed 3.5 X
Track quality 100.0 %
Test CRC 596F0490
Copy CRC 596F0490
Accurately ripped (confidence 4) [17D07C78] (AR v1)
Copy OK

Track 4

Filename E:MusicCDRipMarty Ehrlich’s Traveler’s Tales – Malinke’s Dance (2000) [FLAC] {OmniTone 12003}4 – Line on Love.wav

Pre-gap length 0:00:03.55

Peak level 86.5 %
Extraction speed 3.8 X
Track quality 100.0 %
Test CRC 0169A00C
Copy CRC 0169A00C
Accurately ripped (confidence 4) [6020DDA9] (AR v1)
Copy OK

Track 5

Filename E:MusicCDRipMarty Ehrlich’s Traveler’s Tales – Malinke’s Dance (2000) [FLAC] {OmniTone 12003}5 – Pigskin.wav

Pre-gap length 0:00:04.17

Peak level 94.5 %
Extraction speed 4.0 X
Track quality 100.0 %
Test CRC 8611BD2F
Copy CRC 8611BD2F
Accurately ripped (confidence 4) [4F94DB81] (AR v1)
Copy OK

Track 6

Filename E:MusicCDRipMarty Ehrlich’s Traveler’s Tales – Malinke’s Dance (2000) [FLAC] {OmniTone 12003}6 – Tears of Rage.wav

Pre-gap length 0:00:04.17

Peak level 93.3 %
Extraction speed 4.3 X
Track quality 100.0 %
Test CRC 54D76E16
Copy CRC 54D76E16
Accurately ripped (confidence 4) [D48BA425] (AR v1)
Copy OK

Track 7

Filename E:MusicCDRipMarty Ehrlich’s Traveler’s Tales – Malinke’s Dance (2000) [FLAC] {OmniTone 12003}7 – North Star.wav

Pre-gap length 0:00:01.54

Peak level 98.8 %
Extraction speed 4.2 X
Track quality 100.0 %
Test CRC 7285AC63
Copy CRC 7285AC63
Accurately ripped (confidence 4) [553BE607] (AR v1)
Copy OK

Track 8

Filename E:MusicCDRipMarty Ehrlich’s Traveler’s Tales – Malinke’s Dance (2000) [FLAC] {OmniTone 12003}8 – Bright Remembered.wav

Pre-gap length 0:00:03.54

Peak level 91.9 %
Extraction speed 4.8 X
Track quality 100.0 %
Test CRC 101A2D46
Copy CRC 101A2D46
Accurately ripped (confidence 4) [A457C71C] (AR v1)
Copy OK

Track 9

Filename E:MusicCDRipMarty Ehrlich’s Traveler’s Tales – Malinke’s Dance (2000) [FLAC] {OmniTone 12003}9 – Willy Whippoorwill Steals a Bow.wav

Pre-gap length 0:00:03.53

Peak level 93.2 %
Extraction speed 4.8 X
Track quality 100.0 %
Test CRC 5AE06085
Copy CRC 5AE06085
Accurately ripped (confidence 4) [9D029A58] (AR v1)
Copy OK

All tracks accurately ripped

No errors occurred

End of status report

==== Log checksum 006E7BFD49AC1C0089F794A1E4F771D52FB2E6C67F6EBDA4031B6BB287B15D73 ====

All thanks go to the domednest

More Music in My Blog
Follow My RSS Channel

Marty Ehrlich's Traveler's Tales – Malinke's Dance (2000) Download, Warez, DDL, Free, Full Album, Torrent, Legal.

Download