Martin Scorsese Presents The Blues: Stevie Ray Vaughan (2003) [Japanese Ed.] | ViralVideoPk

Daily Dose of Free Downloads

Martin Scorsese Presents The Blues: Stevie Ray Vaughan (2003) [Japanese Ed.]

Download

Martin Scorsese Presents The Blues: Stevie Ray Vaughan (2003) [Japanese Ed.]

Martin Scorsese Presents The Blues: Stevie Ray Vaughan (2003) [Japanese Ed.]
EAC Rip | FLAC: Tracks+Cue+Log | 523 Mb | MP3 CBR 320 kbps | 202 Mb | Scans | 62 Mb | Time: 01:14:03
Sony Music | MHCP-2058
Blues Rock, Electric Texas Blues

While 2002’s Essential Stevie Ray Vaughan & Double Trouble is the place to go for the complete picture, Martin Scorsese Presents the Blues: Stevie Ray Vaughan works well as a nice single-disc introduction to the work of the influential blues guitarist. Perhaps a few more hits could have been included to make this more attractive to the curious buyer, but with a previously unreleased live version of "Mary Had a Little Lamb" and a track listing that dodges much of the 1995 Greatest Hits collection, this does offer an alternative for longtime fans. ~ Matt Collar

Martin Scorsese Presents The Blues: Stevie Ray Vaughan (2003) [Japanese Ed.]
Stevie Ray Vaughan
Wikipedia | CDJapan
Martin Scorsese Presents The Blues: Stevie Ray Vaughan (2003) [Japanese Ed.]

Track Listing

01. Slide Thing (Live) (03:04)
02. All Your Love I Miss Loving (Live) (06:13)
03. Pride And Joy (03:40)
04. Dirty Pool (05:01)
05. Texas Flood (05:22)
06. Hug You, Squeeze You (Live) (03:50)
07. The Things (That) I Used To Do (04:54)
08. Honey Bee (02:42)
09. Give Me Back My Wig (04:07)
10. The Sky Is Crying (Live) (07:21)
11. Look At Little Sister (03:09)
12. Empty Arms (03:04)
13. Come On (Part III) (04:31)
14. Ain’t Gone ‘N’ Give Up On Love (Live) (06:36)
15. Mary Had A Little Lamb (Live) * (06:12)
16. Leave My Girl Alone (04:16)

* Previously unissued track.

Produced by Stevie Ray Vaughan, Double Trouble, Richard Mullen, Jim Capfer, Bob Irwin, Jim Gaines
Compilation producer: Bob Irwin

The Band

• Stevie Ray Vaughan – guitar, vocals
• Tommy Shannon, Jackie Newhouse – bass
• Chris Layton – drums, percussion
• Reese Wynans – keyboards

Notes
Recording information: Carnegie Hall, NY (04/01/1980-02/21/1989); Montreaux International Jazz Festival (04/01/1980-02/21/1989); Montreux International Jazz Festival (04/01/1980-02/21/1989); Philadelphia, PA (04/01/1980-02/21/1989); Steamboat, Austin, TX (04/01/1980-02/21/1989); The El Mocambo, Toronto, CN (04/01/1980-02/21/1989); The Steamboat, Austin, TX (04/01/1980-02/21/1989).

EAC Log
Exact Audio Copy V0.99 prebeta 5 from 4. May 2009

EAC extraction logfile from 13. September 2011, 21:03

Stevie Ray Vaughan / Martin Scorcese Presents

Used drive : Optiarc DVD RW AD-7280S Adapter: 2 ID: 0

Read mode : Secure
Utilize accurate stream : Yes
Defeat audio cache : Yes
Make use of C2 pointers : No

Read offset correction : 48
Overread into Lead-In and Lead-Out : No
Fill up missing offset samples with silence : Yes
Delete leading and trailing silent blocks : No
Null samples used in CRC calculations : Yes
Used interface : Native Win32 interface for Win NT & 2000
Gap handling : Appended to previous track

Used output format : User Defined Encoder
Selected bitrate : 768 kBit/s
Quality : High
Add ID3 tag : No
Command line compressor : C:Program FilesExact Audio CopyFlacflac.exe
Additional command line options : -8 -V -T "ARTIST=%a" -T "TITLE=%t" -T "ALBUM=%g" -T "DATE=%y" -T "TRACKNUMBER=%n" -T "GENRE=%m" -T "COMMENT=EAC FLAC -8" %s

TOC of the extracted CD

Track | Start | Length | Start sector | End sector
––––––––––––––––––––––––––––-
1 | 0:00.00 | 3:04.22 | 0 | 13821
2 | 3:04.22 | 6:13.13 | 13822 | 41809
3 | 9:17.35 | 3:39.60 | 41810 | 58294
4 | 12:57.20 | 5:01.02 | 58295 | 80871
5 | 17:58.22 | 5:21.50 | 80872 | 104996
6 | 23:19.72 | 3:49.65 | 104997 | 122236
7 | 27:09.62 | 4:54.08 | 122237 | 144294
8 | 32:03.70 | 2:42.22 | 144295 | 156466
9 | 34:46.17 | 4:07.05 | 156467 | 174996
10 | 38:53.22 | 7:20.43 | 174997 | 208039
11 | 46:13.65 | 3:08.47 | 208040 | 222186
12 | 49:22.37 | 3:04.20 | 222187 | 236006
13 | 52:26.57 | 4:31.13 | 236007 | 256344
14 | 56:57.70 | 6:36.32 | 256345 | 286076
15 | 63:34.27 | 6:11.58 | 286077 | 313959
16 | 69:46.10 | 4:16.12 | 313960 | 333171

Track 1

Filename D:EAC1-Stevie Ray Vaughan-Slide Thing (Live).wav

Pre-gap length 0:00:02.00

Peak level 97.3 %
Track quality 99.9 %
Test CRC 03F990AE
Copy CRC 03F990AE
Track not present in AccurateRip database
Copy OK

Track 2

Filename D:EAC2-Stevie Ray Vaughan-All Your Love I Miss Loving (Live).wav

Peak level 97.4 %
Track quality 100.0 %
Test CRC 5E3526A6
Copy CRC 5E3526A6
Track not present in AccurateRip database
Copy OK

Track 3

Filename D:EAC3-Stevie Ray Vaughan-Pride And Joy.wav

Peak level 98.2 %
Track quality 99.9 %
Test CRC A010CB56
Copy CRC A010CB56
Track not present in AccurateRip database
Copy OK

Track 4

Filename D:EAC4-Stevie Ray Vaughan-Dirty Pool.wav

Peak level 100.0 %
Track quality 100.0 %
Test CRC 63608BC4
Copy CRC 63608BC4
Track not present in AccurateRip database
Copy OK

Track 5

Filename D:EAC5-Stevie Ray Vaughan-Texas Flood.wav

Peak level 100.0 %
Track quality 100.0 %
Test CRC 8C298821
Copy CRC 8C298821
Track not present in AccurateRip database
Copy OK

Track 6

Filename D:EAC6-Stevie Ray Vaughan-Hug You, Squeeze You (Live).wav

Peak level 100.0 %
Track quality 100.0 %
Test CRC B77EF347
Copy CRC B77EF347
Track not present in AccurateRip database
Copy OK

Track 7

Filename D:EAC7-Stevie Ray Vaughan-The Things (That) I Used To Do.wav

Pre-gap length 0:00:01.49

Peak level 96.8 %
Track quality 100.0 %
Test CRC AD63E7CA
Copy CRC AD63E7CA
Track not present in AccurateRip database
Copy OK

Track 8

Filename D:EAC8-Stevie Ray Vaughan-Honey Bee.wav

Peak level 99.4 %
Track quality 100.0 %
Test CRC 743B787E
Copy CRC 743B787E
Track not present in AccurateRip database
Copy OK

Track 9

Filename D:EAC9-Stevie Ray Vaughan-Give Me Back My Wig.wav

Peak level 100.0 %
Track quality 99.9 %
Test CRC 5C71324A
Copy CRC 5C71324A
Track not present in AccurateRip database
Copy OK

Track 10

Filename D:EAC10-Stevie Ray Vaughan-The Sky Is Crying (Live).wav

Peak level 99.8 %
Track quality 100.0 %
Test CRC 01C6294B
Copy CRC 01C6294B
Track not present in AccurateRip database
Copy OK

Track 11

Filename D:EAC11-Stevie Ray Vaughan-Look At Little Sister.wav

Peak level 100.0 %
Track quality 99.9 %
Test CRC B9593957
Copy CRC B9593957
Track not present in AccurateRip database
Copy OK

Track 12

Filename D:EAC12-Stevie Ray Vaughan-Empty Arms.wav

Peak level 100.0 %
Track quality 99.9 %
Test CRC 7161F56A
Copy CRC 7161F56A
Track not present in AccurateRip database
Copy OK

Track 13

Filename D:EAC13-Stevie Ray Vaughan-Come On (Part III).wav

Peak level 100.0 %
Track quality 100.0 %
Test CRC 784DBDB9
Copy CRC 784DBDB9
Track not present in AccurateRip database
Copy OK

Track 14

Filename D:EAC14-Stevie Ray Vaughan-Ain’t Gone ‘N’ Give Up On Love (Live).wav

Peak level 100.0 %
Track quality 100.0 %
Test CRC 66C94D19
Copy CRC 66C94D19
Track not present in AccurateRip database
Copy OK

Track 15

Filename D:EAC15-Stevie Ray Vaughan-Mary Had A Little Lamb (Live).wav

Pre-gap length 0:00:01.49

Peak level 100.0 %
Track quality 100.0 %
Test CRC EF16941D
Copy CRC EF16941D
Track not present in AccurateRip database
Copy OK

Track 16

Filename D:EAC16-Stevie Ray Vaughan-Leave My Girl Alone.wav

Pre-gap length 0:00:01.80

Peak level 100.0 %
Track quality 100.0 %
Test CRC 0F760AFC
Copy CRC 0F760AFC
Track not present in AccurateRip database
Copy OK

None of the tracks are present in the AccurateRip database

No errors occurred

End of status report

Many thanks to the original uploader: egr1973

SEE also:
Stevie Ray Vaughan and Double Trouble 1983 Texas Flood [Remastered 1999]
Stevie Ray Vaughan and Double Trouble 1983 Texas Flood [Japanese Ed. 2005, MHCP-636]
Stevie Ray Vaughan and Double Trouble 1984 Couldn’t Stand The Weather [Japanese Ed. 2005, MHCP-637]
Stevie Ray Vaughan and Double Trouble 1985 Soul To Soul [Japanese Ed. 2005, MHCP-638]
Stevie Ray Vaughan and Double Trouble 1989 In Step [Japanese Ed. 2005, MHCP-639]
Stevie Ray Vaughan and Double Trouble 1991 The Sky Is Crying
Stevie Ray Vaughan and Double Trouble 1991 Live At The El Mocambo [DVD]

Martin Scorsese Presents The Blues: Stevie Ray Vaughan (2003) [Japanese Ed.] Download, Warez, DDL, Free, Full Album, Torrent, Legal.

Download


  • Recent Posts

  • Recent Tags