Martin Kratochvíl & Jazz Q – Jazz Q [8CD Box Set] (2007)

Download
Martin Kratochvíl & Jazz Q - Jazz Q [8CD Box Set] (2007)

Martin Kratochvíl & Jazz Q – Jazz Q [8CD Box Set] (2007)
EAC Rip | FLAC (tracks+.cue+log) – 2,54 GB | MP3 CBR 320 kbps (LAME 3.93) – 965 MB | Covers – 199 MB
Genre: Progressive/Jazz Rock | RAR 3% Rec. | Label: Supraphon (SU 5872-2)

An exclusive 8-CD box set containing albums and rare recordings made by the Czech jazzrock legend Martin Kratochvíl! The box set includes albums not previously released on CD or unavailable for many years, as well as studio recordings with a hallmark of surprise from the repertoire of Martin Kratochvíl’s Jazz Q. The compilation has been put together by the band’s front man and supplemented by an interesting memoir of his colleague Tony Ackermann.
From the introductory “Pozorovatelna” (Observatory) to the concluding bonus “Co se na desky nevešlo” (Outtakes), the listener is presented with first-class pieces performed by superlative instrumentalists and vocalists. Besides the keyboard wizard Kratochvíl, you will hear Francl, Padrůněk, Vrbovec and Dugganová, and, as time went by, other of his permanent or occasional musical partners. Accordingly, the CDs feature Andršt, Faukner, Laun, Martinec, Tomek, Helešic, Trnavský, Petr and Kozma, as well as dozens of guests, including Koubková, Kalandra, Kulhánek, J. Veselý, Griglák and C & K Vocal.
A veritable feast for all those who were around at the time and a great adventure for younger music fans keen on discovering music straddling the borders between rock and jazz, or jazz and rock, call it what you will.
The first part of the set contains the recordings from 1973. The instrumental Pozovatelna which sounds much better than the original LP due to the excellent remastering and it is extended with suiting additional songs to 65 minutes. The second one, Symbiosis, was recorded together with the British female singer Joan Duggan and comes with one suiting 10 minutes bonus track. Both offer a great mixture of Prog, Rock and Jazzrock elements.
The third CD, Jazz Q 1974-75 live – a concert from 1975 in medium recording quality again with Joan Duggan – was not released on LP at all, but on CD in 1991. It has a strong Bluesrock influence.
The following four albums Elegie, Zvěsti, Hodokvas and Hvězdoň were recorded between 1976 and 1981. All of them contain an instrumental mixture of Prog, Rock and Jazzrock elements again and they keep the constantly high level from the band’s first recordings.
The final CD Bonusy is a real treasury for those interested in the late works of the band: Besides two unreleased tracks from the Mid-Seventies and the the single from 1979 it contains exclusively recordings from the Eighties, all in studio quality.

Progarchives

Martin Kratochvíl & Jazz Q - Jazz Q [8CD Box Set] (2007)

CD 1: Pozorovatelna (1973)
EAC Rip | FLAC (tracks+.cue+log) – 376 MB | MP3 CBR 320 kbps (LAME 3.93) – 154 MB
Genre: Progressive/Jazz Rock | RAR 3% Rec. | Label: Supraphon (SU 5872-2)

Tracklist:
01. Pori 72
02. Pozorovatelna
03. Trifid
04. Klobásové Hody
05. Kartágo
06. Walter L.
07. Pozorovatelna II
08. Kartágo II
09. Percenta pro Hnízdovku

Total time: 01:05:42

EAC log
Exact Audio Copy V1.0 beta 3 from 29. August 2011

EAC extraction logfile from 2. November 2013, 14:29

Martin Kratochvil & Jazz Q / CD1 Pozorovatelna (1973)

Used drive : HL-DT-STDVD-RAM GH22NP20 Adapter: 0 ID: 0

Read mode : Secure
Utilize accurate stream : Yes
Defeat audio cache : Yes
Make use of C2 pointers : No

Read offset correction : 102
Overread into Lead-In and Lead-Out : No
Fill up missing offset samples with silence : Yes
Delete leading and trailing silent blocks : No
Null samples used in CRC calculations : Yes
Used interface : Native Win32 interface for Win NT & 2000
Gap handling : Appended to previous track

Used output format : User Defined Encoder
Selected bitrate : 1024 kBit/s
Quality : High
Add ID3 tag : No
Command line compressor : C:Program FilesExact Audio CopyFlacflac.exe
Additional command line options : -V -8 -T "Genre=%genre%" -T "Artist=%artist%" -T "Title=%title%" -T "Album=%albumtitle%" -T "Date=%year%" -T "Tracknumber=%tracknr%" -T "Comment=%comment%" %source%

TOC of the extracted CD

Track | Start | Length | Start sector | End sector
––––––––––––––––––––––––––––-
1 | 0:00.00 | 13:06.55 | 0 | 59004
2 | 13:06.55 | 6:48.70 | 59005 | 89674
3 | 19:55.50 | 9:27.55 | 89675 | 132254
4 | 29:23.30 | 5:48.07 | 132255 | 158361
5 | 35:11.37 | 4:35.48 | 158362 | 179034
6 | 39:47.10 | 5:43.37 | 179035 | 204796
7 | 45:30.47 | 5:26.28 | 204797 | 229274
8 | 50:57.00 | 5:23.37 | 229275 | 253536
9 | 56:20.37 | 9:19.40 | 253537 | 295501

Track 1

Filename D:musicMusicgate’s ripsMartin Kratochvil & Jazz Q – Martin Kratochvil & Jazz Q – 2007 (Supraphon)CD1 Pozorovatelna (1973)1 – Pori 72.wav

Pre-gap length 0:00:02.00

Peak level 97.7 %
Extraction speed 2.1 X
Track quality 100.0 %
Test CRC A5B69537
Copy CRC A5B69537
Accurately ripped (confidence 3) [86CB8C2E] (AR v2)
Copy OK

Track 2

Filename D:musicMusicgate’s ripsMartin Kratochvil & Jazz Q – Martin Kratochvil & Jazz Q – 2007 (Supraphon)CD1 Pozorovatelna (1973)2 – Pozorovatelna.wav

Peak level 97.7 %
Extraction speed 2.5 X
Track quality 100.0 %
Test CRC 9070C5CC
Copy CRC 9070C5CC
Accurately ripped (confidence 3) [7BCEFB6C] (AR v2)
Copy OK

Track 3

Filename D:musicMusicgate’s ripsMartin Kratochvil & Jazz Q – Martin Kratochvil & Jazz Q – 2007 (Supraphon)CD1 Pozorovatelna (1973)3 – Trifid.wav

Peak level 97.7 %
Extraction speed 2.6 X
Track quality 99.9 %
Test CRC CF7AF436
Copy CRC CF7AF436
Accurately ripped (confidence 3) [EEDC5936] (AR v2)
Copy OK

Track 4

Filename D:musicMusicgate’s ripsMartin Kratochvil & Jazz Q – Martin Kratochvil & Jazz Q – 2007 (Supraphon)CD1 Pozorovatelna (1973)4 – Klobasove hody.wav

Peak level 97.7 %
Extraction speed 2.9 X
Track quality 100.0 %
Test CRC 51182F68
Copy CRC 51182F68
Accurately ripped (confidence 3) [F46481C0] (AR v2)
Copy OK

Track 5

Filename D:musicMusicgate’s ripsMartin Kratochvil & Jazz Q – Martin Kratochvil & Jazz Q – 2007 (Supraphon)CD1 Pozorovatelna (1973)5 – Kartago.wav

Peak level 97.7 %
Extraction speed 2.9 X
Track quality 100.0 %
Test CRC F85641F3
Copy CRC F85641F3
Accurately ripped (confidence 3) [87B9D1BF] (AR v2)
Copy OK

Track 6

Filename D:musicMusicgate’s ripsMartin Kratochvil & Jazz Q – Martin Kratochvil & Jazz Q – 2007 (Supraphon)CD1 Pozorovatelna (1973)6 – (bonus) Walter L..wav

Peak level 97.7 %
Extraction speed 3.1 X
Track quality 100.0 %
Test CRC 88807BFC
Copy CRC 88807BFC
Accurately ripped (confidence 3) [7CAE75C3] (AR v2)
Copy OK

Track 7

Filename D:musicMusicgate’s ripsMartin Kratochvil & Jazz Q – Martin Kratochvil & Jazz Q – 2007 (Supraphon)CD1 Pozorovatelna (1973)7 – (bonus) Pozorovatelna II.wav

Peak level 97.7 %
Extraction speed 3.2 X
Track quality 100.0 %
Test CRC 1AF0868A
Copy CRC 1AF0868A
Accurately ripped (confidence 3) [E789A9D0] (AR v2)
Copy OK

Track 8

Filename D:musicMusicgate’s ripsMartin Kratochvil & Jazz Q – Martin Kratochvil & Jazz Q – 2007 (Supraphon)CD1 Pozorovatelna (1973)8 – (bonus) Kartago II (Pockame az do Kartaga).wav

Peak level 97.7 %
Extraction speed 3.4 X
Track quality 100.0 %
Test CRC D7F49602
Copy CRC D7F49602
Accurately ripped (confidence 3) [32098DC7] (AR v2)
Copy OK

Track 9

Filename D:musicMusicgate’s ripsMartin Kratochvil & Jazz Q – Martin Kratochvil & Jazz Q – 2007 (Supraphon)CD1 Pozorovatelna (1973)9 – (bonus) Percenta pro hnizdovku.wav

Peak level 97.7 %
Extraction speed 3.8 X
Track quality 100.0 %
Test CRC 054B088D
Copy CRC 054B088D
Accurately ripped (confidence 3) [BD62474E] (AR v2)
Copy OK

All tracks accurately ripped

No errors occurred

End of status report

==== Log checksum 0F0358E2C5EECD1B7B1B06753C93968F23C49F8C96275926367219B7C42E9051 ====

CUETools log
[CUETools log; Date: 24.12.2016 15:49:20; Version: 2.1.4]
[CTDB TOCID: XHwwo0wQUYHxipIorc0tbytO8Bs-] found.
Track | CTDB Status
1 | (15/15) Accurately ripped
2 | (15/15) Accurately ripped
3 | (15/15) Accurately ripped
4 | (15/15) Accurately ripped
5 | (15/15) Accurately ripped
6 | (15/15) Accurately ripped
7 | (15/15) Accurately ripped
8 | (15/15) Accurately ripped
9 | (15/15) Accurately ripped
[AccurateRip ID: 00186fa3-00ac38b4-8a0f6409] found.
Track [ CRC | V2 ] Status
01 [595d69dc|86cb8c2e] (05+06/14) Accurately ripped
02 [469c3b9a|7bcefb6c] (05+06/14) Accurately ripped
03 [f4848556|eedc5936] (05+06/14) Accurately ripped
04 [8db401fe|f46481c0] (05+06/14) Accurately ripped
05 [2adbedaf|87b9d1bf] (05+06/14) Accurately ripped
06 [adf028e2|7cae75c3] (05+06/14) Accurately ripped
07 [ecd9822a|e789a9d0] (05+06/14) Accurately ripped
08 [fa27ce04|32098dc7] (05+06/14) Accurately ripped
09 [5ea6254f|bd62474e] (05+06/14) Accurately ripped
Offsetted by -6:
01 [a61485e8] (00/14) No match (V2 was not tested)
02 [e207d270] (00/14) No match (V2 was not tested)
03 [dfffecd0] (00/14) No match (V2 was not tested)
04 [1d5546da] (00/14) No match (V2 was not tested)
05 [b1cbd86d] (00/14) No match (V2 was not tested)
06 [e7db64fe] (00/14) No match (V2 was not tested)
07 [5dd87360] (00/14) No match (V2 was not tested)
08 [ad467872] (00/14) No match (V2 was not tested)
09 [2fcae9b9] (00/14) No match (V2 was not tested)

Track Peak [ CRC32 ] [W/O NULL] [ LOG ]
– 97,7 [C5283EB7] [3A0674CB]
01 97,7 [A5B69537] [16E16E6B] CRC32
02 97,7 [9070C5CC] [46A73D3B] CRC32
03 97,7 [CF7AF436] [2CAAE33E] CRC32
04 97,7 [51182F68] [3857A4A6] CRC32
05 97,7 [F85641F3] [E3903EB0] CRC32
06 97,7 [88807BFC] [597C272B] CRC32
07 97,7 [1AF0868A] [48BB5008] CRC32
08 97,7 [D7F49602] [208D21FB] CRC32
09 97,7 [054B088D] [70E77476] CRC32

Martin Kratochvíl & Jazz Q - Jazz Q [8CD Box Set] (2007)

CD 2: Symbiosis (1974)
EAC Rip | FLAC (tracks+.cue+log) – 261 MB | MP3 CBR 320 kbps (LAME 3.93) – 115 MB
Genre: Progressive/Jazz Rock | RAR 3% Rec. | Label: Supraphon (SU 5872-2)

Tracklist:
01. Ze Tmy Do Světla (From Dark To Light)
02. Ztracená Láska (Lost Soul)
03. Hvězdný Pták (Starbird)
04. Čaroděj (The Wizard)
05. Epilog
06. Předzvěst (Presage)

Total time: 49:09

EAC log
Exact Audio Copy V1.0 beta 3 from 29. August 2011

EAC extraction logfile from 2. November 2013, 15:04

Martin Kratochvil & Jazz Q / CD2 Symbiosis (1974)

Used drive : HL-DT-STDVD-RAM GH22NP20 Adapter: 0 ID: 0

Read mode : Secure
Utilize accurate stream : Yes
Defeat audio cache : Yes
Make use of C2 pointers : No

Read offset correction : 102
Overread into Lead-In and Lead-Out : No
Fill up missing offset samples with silence : Yes
Delete leading and trailing silent blocks : No
Null samples used in CRC calculations : Yes
Used interface : Native Win32 interface for Win NT & 2000
Gap handling : Appended to previous track

Used output format : User Defined Encoder
Selected bitrate : 1024 kBit/s
Quality : High
Add ID3 tag : No
Command line compressor : C:Program FilesExact Audio CopyFlacflac.exe
Additional command line options : -V -8 -T "Genre=%genre%" -T "Artist=%artist%" -T "Title=%title%" -T "Album=%albumtitle%" -T "Date=%year%" -T "Tracknumber=%tracknr%" -T "Comment=%comment%" %source%

TOC of the extracted CD

Track | Start | Length | Start sector | End sector
––––––––––––––––––––––––––––-
1 | 0:00.00 | 6:02.02 | 0 | 27151
2 | 6:02.02 | 6:06.40 | 27152 | 54641
3 | 12:08.42 | 7:23.09 | 54642 | 87875
4 | 19:31.51 | 16:26.45 | 87876 | 161870
5 | 35:58.21 | 3:28.69 | 161871 | 177539
6 | 39:27.15 | 9:40.03 | 177540 | 221042

Track 1

Filename D:musicMusicgate’s ripsMartin Kratochvil & Jazz Q – Martin Kratochvil & Jazz Q – 2007 (Supraphon)CD2 Symbiosis (1974)1 – Ze Tmy Do Svetla (From Dark To Light).wav

Pre-gap length 0:00:02.00

Peak level 97.7 %
Extraction speed 2.8 X
Track quality 100.0 %
Test CRC 064A39C9
Copy CRC 064A39C9
Accurately ripped (confidence 3) [6F3B75F3] (AR v2)
Copy OK

Track 2

Filename D:musicMusicgate’s ripsMartin Kratochvil & Jazz Q – Martin Kratochvil & Jazz Q – 2007 (Supraphon)CD2 Symbiosis (1974)2 – Ztracena Laska (Lost Soul).wav

Peak level 97.7 %
Extraction speed 2.9 X
Track quality 99.9 %
Test CRC 206B99B6
Copy CRC 206B99B6
Accurately ripped (confidence 3) [4E9BA41D] (AR v2)
Copy OK

Track 3

Filename D:musicMusicgate’s ripsMartin Kratochvil & Jazz Q – Martin Kratochvil & Jazz Q – 2007 (Supraphon)CD2 Symbiosis (1974)3 – Hvezdny Ptak (Starbird).wav

Peak level 97.7 %
Extraction speed 3.6 X
Track quality 100.0 %
Test CRC BB57D36E
Copy CRC BB57D36E
Accurately ripped (confidence 3) [D5F548F6] (AR v2)
Copy OK

Track 4

Filename D:musicMusicgate’s ripsMartin Kratochvil & Jazz Q – Martin Kratochvil & Jazz Q – 2007 (Supraphon)CD2 Symbiosis (1974)4 – Carodej (The Wizard).wav

Pre-gap length 0:00:00.01

Peak level 97.7 %
Extraction speed 4.4 X
Track quality 100.0 %
Test CRC 4821BC74
Copy CRC 4821BC74
Accurately ripped (confidence 3) [6AD065FE] (AR v2)
Copy OK

Track 5

Filename D:musicMusicgate’s ripsMartin Kratochvil & Jazz Q – Martin Kratochvil & Jazz Q – 2007 (Supraphon)CD2 Symbiosis (1974)5 – Epilog.wav

Peak level 57.1 %
Extraction speed 4.3 X
Track quality 100.0 %
Test CRC 7096470C
Copy CRC 7096470C
Accurately ripped (confidence 3) [C074D5E7] (AR v2)
Copy OK

Track 6

Filename D:musicMusicgate’s ripsMartin Kratochvil & Jazz Q – Martin Kratochvil & Jazz Q – 2007 (Supraphon)CD2 Symbiosis (1974)6 – Predzvest (Bonus Track).wav

Peak level 97.5 %
Extraction speed 5.0 X
Track quality 100.0 %
Test CRC 56F47B12
Copy CRC 56F47B12
Accurately ripped (confidence 3) [F6FE1175] (AR v2)
Copy OK

All tracks accurately ripped

No errors occurred

End of status report

==== Log checksum E2DFE42A7F1742263D8D890B7FE97C28FCA419D8131F7A6C704016F946326271 ====

CUETools log
[CUETools log; Date: 24.12.2016 15:50:06; Version: 2.1.4]
[CTDB TOCID: 6QTbGq57EreckCvPkIhlrAZwxmY-] found.
Track | CTDB Status
1 | (12/12) Accurately ripped
2 | (12/12) Accurately ripped
3 | (12/12) Accurately ripped
4 | (12/12) Accurately ripped
5 | (12/12) Accurately ripped
6 | (12/12) Accurately ripped
[AccurateRip ID: 000b240c-003ce84f-420b8306] found.
Track [ CRC | V2 ] Status
01 [5df5d51f|6f3b75f3] (03+06/11) Accurately ripped
02 [77e5bef7|4e9ba41d] (03+06/11) Accurately ripped
03 [66a58e0d|d5f548f6] (03+06/11) Accurately ripped
04 [49a16cf1|6ad065fe] (03+06/11) Accurately ripped
05 [758efb82|c074d5e7] (03+06/11) Accurately ripped
06 [171d8e42|f6fe1175] (03+06/11) Accurately ripped
Offsetted by -6:
01 [827b421f] (00/11) No match (V2 was not tested)
02 [8e079e00] (00/11) No match (V2 was not tested)
03 [3ff9f1fc] (00/11) No match (V2 was not tested)
04 [82fb0d1b] (00/11) No match (V2 was not tested)
05 [6dc45cd0] (00/11) No match (V2 was not tested)
06 [2078530a] (00/11) No match (V2 was not tested)

Track Peak [ CRC32 ] [W/O NULL] [ LOG ]
– 97,7 [735BE3CF] [06E56326]
01 97,7 [064A39C9] [99DD472C] CRC32
02 97,7 [206B99B6] [DDCE63D1] CRC32
03 97,7 [BB57D36E] [8E39E7B6] CRC32
04 97,7 [4821BC74] [A12DA1E0] CRC32
05 57,1 [7096470C] [AEE8E3C0] CRC32
06 97,5 [56F47B12] [233CF848] CRC32

Martin Kratochvíl & Jazz Q - Jazz Q [8CD Box Set] (2007)

CD 3: Live 1974-75 (1991)
EAC Rip | FLAC (tracks+.cue+log) – 386 MB | MP3 CBR 320 kbps (LAME 3.93) – 131 MB
Genre: Progressive/Jazz Rock | RAR 3% Rec. | Label: Supraphon (SU 5872-2)

Tracklist:
01. Watch Out
02. My Mother Mě Porodila V Strouze
03. We All Had A Real Good Time
04. Sanctuary
05. Giving Up
06. Freedom Jazz Dance
07. Lonesome
08. Living For The City
09. Co Dům Dal

Total time: 55:47

EAC log
Exact Audio Copy V1.0 beta 3 from 29. August 2011

EAC extraction logfile from 2. November 2013, 18:57

Martin Kratochvil & Jazz Q / CD3 Live 1974-1775 (1991)

Used drive : HL-DT-STDVD-RAM GH22NP20 Adapter: 0 ID: 0

Read mode : Secure
Utilize accurate stream : Yes
Defeat audio cache : Yes
Make use of C2 pointers : No

Read offset correction : 102
Overread into Lead-In and Lead-Out : No
Fill up missing offset samples with silence : Yes
Delete leading and trailing silent blocks : No
Null samples used in CRC calculations : Yes
Used interface : Native Win32 interface for Win NT & 2000
Gap handling : Appended to previous track

Used output format : User Defined Encoder
Selected bitrate : 1024 kBit/s
Quality : High
Add ID3 tag : No
Command line compressor : C:Program FilesExact Audio CopyFlacflac.exe
Additional command line options : -V -8 -T "Genre=%genre%" -T "Artist=%artist%" -T "Title=%title%" -T "Album=%albumtitle%" -T "Date=%year%" -T "Tracknumber=%tracknr%" -T "Comment=%comment%" %source%

TOC of the extracted CD

Track | Start | Length | Start sector | End sector
––––––––––––––––––––––––––––-
1 | 0:00.00 | 4:55.54 | 0 | 22178
2 | 4:55.54 | 8:13.10 | 22179 | 59163
3 | 13:08.64 | 3:12.53 | 59164 | 73616
4 | 16:21.42 | 6:23.52 | 73617 | 102393
5 | 22:45.19 | 4:41.48 | 102394 | 123516
6 | 27:26.67 | 8:41.11 | 123517 | 162602
7 | 36:08.03 | 7:50.36 | 162603 | 197888
8 | 43:58.39 | 6:21.17 | 197889 | 226480
9 | 50:19.56 | 5:26.02 | 226481 | 250932

Track 1

Filename D:musicMusicgate’s ripsMartin Kratochvil & Jazz Q – Martin Kratochvil & Jazz Q – 2007 (Supraphon)CD3 Live 1974-1775 (1991)1 – Watch Out.wav

Pre-gap length 0:00:02.00

Peak level 97.7 %
Extraction speed 1.6 X
Track quality 100.0 %
Test CRC 66F41485
Copy CRC 66F41485
Accurately ripped (confidence 3) [AA1C5181] (AR v2)
Copy OK

Track 2

Filename D:musicMusicgate’s ripsMartin Kratochvil & Jazz Q – Martin Kratochvil & Jazz Q – 2007 (Supraphon)CD3 Live 1974-1775 (1991)2 – My Mother mì porodila v strouze.wav

Peak level 93.1 %
Extraction speed 2.0 X
Track quality 100.0 %
Test CRC 22C3AC36
Copy CRC 22C3AC36
Accurately ripped (confidence 3) [17E52E4C] (AR v2)
Copy OK

Track 3

Filename D:musicMusicgate’s ripsMartin Kratochvil & Jazz Q – Martin Kratochvil & Jazz Q – 2007 (Supraphon)CD3 Live 1974-1775 (1991)3 – We All Had A Real Good Time.wav

Peak level 97.7 %
Extraction speed 2.0 X
Track quality 100.0 %
Test CRC C06ACAA6
Copy CRC C06ACAA6
Accurately ripped (confidence 3) [155C3D7B] (AR v2)
Copy OK

Track 4

Filename D:musicMusicgate’s ripsMartin Kratochvil & Jazz Q – Martin Kratochvil & Jazz Q – 2007 (Supraphon)CD3 Live 1974-1775 (1991)4 – Sanctuary.wav

Peak level 97.7 %
Extraction speed 2.4 X
Track quality 100.0 %
Test CRC C20492F4
Copy CRC C20492F4
Accurately ripped (confidence 3) [964C713E] (AR v2)
Copy OK

Track 5

Filename D:musicMusicgate’s ripsMartin Kratochvil & Jazz Q – Martin Kratochvil & Jazz Q – 2007 (Supraphon)CD3 Live 1974-1775 (1991)5 – Giving Up.wav

Peak level 97.7 %
Extraction speed 2.5 X
Track quality 100.0 %
Test CRC AC00CE81
Copy CRC AC00CE81
Accurately ripped (confidence 3) [37879130] (AR v2)
Copy OK

Track 6

Filename D:musicMusicgate’s ripsMartin Kratochvil & Jazz Q – Martin Kratochvil & Jazz Q – 2007 (Supraphon)CD3 Live 1974-1775 (1991)6 – Freedom Jazz Dance.wav

Peak level 97.7 %
Extraction speed 2.8 X
Track quality 100.0 %
Test CRC 0466CEA9
Copy CRC 0466CEA9
Accurately ripped (confidence 3) [F3CF3A39] (AR v2)
Copy OK

Track 7

Filename D:musicMusicgate’s ripsMartin Kratochvil & Jazz Q – Martin Kratochvil & Jazz Q – 2007 (Supraphon)CD3 Live 1974-1775 (1991)7 – Lonesome.wav

Peak level 95.2 %
Extraction speed 3.0 X
Track quality 100.0 %
Test CRC EB0D3D26
Copy CRC EB0D3D26
Accurately ripped (confidence 3) [1F7153EF] (AR v2)
Copy OK

Track 8

Filename D:musicMusicgate’s ripsMartin Kratochvil & Jazz Q – Martin Kratochvil & Jazz Q – 2007 (Supraphon)CD3 Live 1974-1775 (1991)8 – Living For The City.wav

Peak level 94.9 %
Extraction speed 3.1 X
Track quality 100.0 %
Test CRC ECC2A667
Copy CRC ECC2A667
Accurately ripped (confidence 3) [F128B181] (AR v2)
Copy OK

Track 9

Filename D:musicMusicgate’s ripsMartin Kratochvil & Jazz Q – Martin Kratochvil & Jazz Q – 2007 (Supraphon)CD3 Live 1974-1775 (1991)9 – Co dùm dal.wav

Peak level 95.5 %
Extraction speed 2.9 X
Track quality 99.9 %
Test CRC 13AB8AC9
Copy CRC 13AB8AC9
Accurately ripped (confidence 3) [1A27DD82] (AR v2)
Copy OK

All tracks accurately ripped

No errors occurred

End of status report

==== Log checksum FB6A01C047F2EE287B3A256A0BDAF129AAF947C81381B4121B29D5A380970D40 ====

CUETools log
[CUETools log; Date: 24.12.2016 15:51:29; Version: 2.1.4]
[CTDB TOCID: azchqwPAqoJrm2NlbQTuTCfst0U-] found.
Track | CTDB Status
1 | (10/10) Accurately ripped
2 | (10/10) Accurately ripped
3 | (10/10) Accurately ripped
4 | (10/10) Accurately ripped
5 | (10/10) Accurately ripped
6 | (10/10) Accurately ripped
7 | (10/10) Accurately ripped
8 | (10/10) Accurately ripped
9 | (10/10) Accurately ripped
[AccurateRip ID: 001298d9-0089ea2f-780d1109] found.
Track [ CRC | V2 ] Status
01 [cf5c5d32|aa1c5181] (03+06/12) Accurately ripped
02 [c2d0a6f0|17e52e4c] (03+06/12) Accurately ripped
03 [c16c610a|155c3d7b] (03+06/12) Accurately ripped
04 [c0cbfaf9|964c713e] (03+06/12) Accurately ripped
05 [0b44c54c|37879130] (03+06/12) Accurately ripped
06 [98ff9d09|f3cf3a39] (03+06/12) Accurately ripped
07 [d2b52bcb|1f7153ef] (03+06/12) Accurately ripped
08 [ed8d590f|f128b181] (03+06/12) Accurately ripped
09 [eebbe20d|1a27dd82] (03+06/12) Accurately ripped
Offsetted by -6:
01 [9d797abb] (00/12) No match (V2 was not tested)
02 [d924fa1a] (00/12) No match (V2 was not tested)
03 [ff212bc2] (00/12) No match (V2 was not tested)
04 [8f8e2852] (00/12) No match (V2 was not tested)
05 [e1095556] (00/12) No match (V2 was not tested)
06 [e5a37d16] (00/12) No match (V2 was not tested)
07 [608cc58e] (00/12) No match (V2 was not tested)
08 [aa1c6530] (00/12) No match (V2 was not tested)
09 [b579ff34] (00/12) No match (V2 was not tested)

Track Peak [ CRC32 ] [W/O NULL] [ LOG ]
– 97,7 [FBA6FC32] [1B03CD0A]
01 97,7 [66F41485] [C313A7C2] CRC32
02 93,1 [22C3AC36] [AA073A8B] CRC32
03 97,7 [C06ACAA6] [2DF3C3B9] CRC32
04 97,7 [C20492F4] [1CD0A9D0] CRC32
05 97,7 [AC00CE81] [87E8EE05] CRC32
06 97,7 [0466CEA9] [73EC186A] CRC32
07 95,2 [EB0D3D26] [3CC1B00B] CRC32
08 94,9 [ECC2A667] [5D44DB19] CRC32
09 95,5 [13AB8AC9] [E26DF10A] CRC32

Martin Kratochvíl & Jazz Q - Jazz Q [8CD Box Set] (2007)

CD 4: Elegie (1977)
EAC Rip | FLAC (tracks+.cue+log) – 237 MB | MP3 CBR 320 kbps (LAME 3.93) – 93 MB
Genre: Progressive/Jazz Rock | RAR 3% Rec. | Label: Supraphon (SU 5872-2)

Tracklist:
01. Slunovrat
02. Naděje
03. Citadela
04. Tanec
05. Létavice
06. Toledo
07. Žravá Dáma
08. Věštba

Total time: 39:47

EAC log
Exact Audio Copy V1.0 beta 3 from 29. August 2011

EAC extraction logfile from 2. November 2013, 20:29

Martin Kratochvil & Jazz Q / CD4 Elegie (1977)

Used drive : HL-DT-STDVD-RAM GH22NP20 Adapter: 0 ID: 0

Read mode : Secure
Utilize accurate stream : Yes
Defeat audio cache : Yes
Make use of C2 pointers : No

Read offset correction : 102
Overread into Lead-In and Lead-Out : No
Fill up missing offset samples with silence : Yes
Delete leading and trailing silent blocks : No
Null samples used in CRC calculations : Yes
Used interface : Native Win32 interface for Win NT & 2000
Gap handling : Appended to previous track

Used output format : User Defined Encoder
Selected bitrate : 1024 kBit/s
Quality : High
Add ID3 tag : No
Command line compressor : C:Program FilesExact Audio CopyFlacflac.exe
Additional command line options : -V -8 -T "Genre=%genre%" -T "Artist=%artist%" -T "Title=%title%" -T "Album=%albumtitle%" -T "Date=%year%" -T "Tracknumber=%tracknr%" -T "Comment=%comment%" %source%

TOC of the extracted CD

Track | Start | Length | Start sector | End sector
––––––––––––––––––––––––––––-
1 | 0:00.00 | 5:23.49 | 0 | 24273
2 | 5:23.49 | 7:13.38 | 24274 | 56786
3 | 12:37.12 | 3:08.51 | 56787 | 70937
4 | 15:45.63 | 3:51.68 | 70938 | 88330
5 | 19:37.56 | 5:18.44 | 88331 | 112224
6 | 24:56.25 | 7:34.17 | 112225 | 146291
7 | 32:30.42 | 5:20.37 | 146292 | 170328
8 | 37:51.04 | 1:54.66 | 170329 | 178944

Track 1

Filename D:musicMusicgate’s ripsMartin Kratochvil & Jazz Q – Martin Kratochvil & Jazz Q – 2007 (Supraphon)CD4 Elegie (1977)1 – Slunovrat.wav

Pre-gap length 0:00:02.00

Peak level 97.7 %
Extraction speed 1.6 X
Track quality 100.0 %
Test CRC 1CF84235
Copy CRC 1CF84235
Accurately ripped (confidence 3) [7444F8E9] (AR v2)
Copy OK

Track 2

Filename D:musicMusicgate’s ripsMartin Kratochvil & Jazz Q – Martin Kratochvil & Jazz Q – 2007 (Supraphon)CD4 Elegie (1977)2 – Nadeje.wav

Peak level 97.7 %
Extraction speed 2.0 X
Track quality 100.0 %
Test CRC 34304C04
Copy CRC 34304C04
Accurately ripped (confidence 3) [A9A6F7A6] (AR v2)
Copy OK

Track 3

Filename D:musicMusicgate’s ripsMartin Kratochvil & Jazz Q – Martin Kratochvil & Jazz Q – 2007 (Supraphon)CD4 Elegie (1977)3 – Citadela.wav

Peak level 97.7 %
Extraction speed 2.0 X
Track quality 100.0 %
Test CRC 492312EF
Copy CRC 492312EF
Accurately ripped (confidence 3) [9E9A286F] (AR v2)
Copy OK

Track 4

Filename D:musicMusicgate’s ripsMartin Kratochvil & Jazz Q – Martin Kratochvil & Jazz Q – 2007 (Supraphon)CD4 Elegie (1977)4 – Tanec.wav

Peak level 97.7 %
Extraction speed 2.2 X
Track quality 100.0 %
Test CRC 72CF6CE7
Copy CRC 72CF6CE7
Accurately ripped (confidence 3) [C718E501] (AR v2)
Copy OK

Track 5

Filename D:musicMusicgate’s ripsMartin Kratochvil & Jazz Q – Martin Kratochvil & Jazz Q – 2007 (Supraphon)CD4 Elegie (1977)5 – Letavice.wav

Peak level 90.8 %
Extraction speed 2.4 X
Track quality 100.0 %
Test CRC CCBF6E23
Copy CRC CCBF6E23
Accurately ripped (confidence 3) [6220DB76] (AR v2)
Copy OK

Track 6

Filename D:musicMusicgate’s ripsMartin Kratochvil & Jazz Q – Martin Kratochvil & Jazz Q – 2007 (Supraphon)CD4 Elegie (1977)6 – Toledo.wav

Peak level 97.7 %
Extraction speed 2.7 X
Track quality 100.0 %
Test CRC E3B06F4D
Copy CRC E3B06F4D
Accurately ripped (confidence 3) [58207438] (AR v2)
Copy OK

Track 7

Filename D:musicMusicgate’s ripsMartin Kratochvil & Jazz Q – Martin Kratochvil & Jazz Q – 2007 (Supraphon)CD4 Elegie (1977)7 – Zrava dama.wav

Peak level 97.7 %
Extraction speed 2.8 X
Track quality 100.0 %
Test CRC 7E02D25C
Copy CRC 7E02D25C
Accurately ripped (confidence 3) [26EE6A19] (AR v2)
Copy OK

Track 8

Filename D:musicMusicgate’s ripsMartin Kratochvil & Jazz Q – Martin Kratochvil & Jazz Q – 2007 (Supraphon)CD4 Elegie (1977)8 – Vestba.wav

Peak level 89.8 %
Extraction speed 1.9 X
Track quality 99.9 %
Test CRC 27758A46
Copy CRC 27758A46
Accurately ripped (confidence 3) [2DDEB1AE] (AR v2)
Copy OK

All tracks accurately ripped

No errors occurred

End of status report

==== Log checksum 15CE5555137F7CB4FE6196BB90655BFE2D9CA16F752AEC24E31F5B89F15CF93C ====

CUETools log
[CUETools log; Date: 24.12.2016 15:52:25; Version: 2.1.4]
[CTDB TOCID: yAiCoVPO7zSLgpT9KBmX2_Epe3Y-] found.
Track | CTDB Status
1 | (10/10) Accurately ripped
2 | (10/10) Accurately ripped
3 | (10/10) Accurately ripped
4 | (10/10) Accurately ripped
5 | (10/10) Accurately ripped
6 | (10/10) Accurately ripped
7 | (10/10) Accurately ripped
8 | (10/10) Accurately ripped
[AccurateRip ID: 000cf0f9-0055ad00-7c095108] found.
Track [ CRC | V2 ] Status
01 [74dceabd|7444f8e9] (03+07/10) Accurately ripped
02 [e3866279|a9a6f7a6] (03+07/10) Accurately ripped
03 [94804bf0|9e9a286f] (03+07/10) Accurately ripped
04 [0f95b28d|c718e501] (03+07/10) Accurately ripped
05 [8308111c|6220db76] (03+07/10) Accurately ripped
06 [8e6c618e|58207438] (03+07/10) Accurately ripped
07 [67404007|26ee6a19] (03+07/10) Accurately ripped
08 [f3a4d2b6|2ddeb1ae] (03+07/10) Accurately ripped

Track Peak [ CRC32 ] [W/O NULL] [ LOG ]
– 97,7 [12DC9B40] [866869BF]
01 97,7 [1CF84235] [01DBF2B1] CRC32
02 97,7 [34304C04] [4069540F] CRC32
03 97,7 [492312EF] [34450474] CRC32
04 97,7 [72CF6CE7] [FD9D8F61] CRC32
05 90,8 [CCBF6E23] [2690AFE8] CRC32
06 97,7 [E3B06F4D] [0192A15F] CRC32
07 97,7 [7E02D25C] [8FB9640E] CRC32
08 89,8 [27758A46] [28BBEBE1] CRC32

Martin Kratochvíl & Jazz Q - Jazz Q [8CD Box Set] (2007)

CD 5: Zvěsti (1978)
EAC Rip | FLAC (tracks+.cue+log) – 267 MB | MP3 CBR 320 kbps (LAME 3.93) – 102 MB
Genre: Progressive/Jazz Rock | RAR 3% Rec. | Label: Supraphon (SU 5872-2)

Tracklist:
01. Klekánice
02. Vzkříšení
03. Šlépěj
04. Jinotaj
05. Tříšť
06. Korouhvička
07. Krůpěj
08. Větroplach

Total time: 43.23

EAC log
Exact Audio Copy V1.0 beta 3 from 29. August 2011

EAC extraction logfile from 2. November 2013, 19:47

Martin Kratochvil & Jazz Q / CD5 Zvesti (1978)

Used drive : HL-DT-STDVD-RAM GH22NP20 Adapter: 0 ID: 0

Read mode : Secure
Utilize accurate stream : Yes
Defeat audio cache : Yes
Make use of C2 pointers : No

Read offset correction : 102
Overread into Lead-In and Lead-Out : No
Fill up missing offset samples with silence : Yes
Delete leading and trailing silent blocks : No
Null samples used in CRC calculations : Yes
Used interface : Native Win32 interface for Win NT & 2000
Gap handling : Appended to previous track

Used output format : User Defined Encoder
Selected bitrate : 1024 kBit/s
Quality : High
Add ID3 tag : No
Command line compressor : C:Program FilesExact Audio CopyFlacflac.exe
Additional command line options : -V -8 -T "Genre=%genre%" -T "Artist=%artist%" -T "Title=%title%" -T "Album=%albumtitle%" -T "Date=%year%" -T "Tracknumber=%tracknr%" -T "Comment=%comment%" %source%

TOC of the extracted CD

Track | Start | Length | Start sector | End sector
––––––––––––––––––––––––––––-
1 | 0:00.00 | 6:19.55 | 0 | 28479
2 | 6:19.55 | 4:57.24 | 28480 | 50778
3 | 11:17.04 | 6:06.55 | 50779 | 78283
4 | 17:23.59 | 4:37.72 | 78284 | 99130
5 | 22:01.56 | 4:29.51 | 99131 | 119356
6 | 26:31.32 | 4:30.17 | 119357 | 139623
7 | 31:01.49 | 5:06.53 | 139624 | 162626
8 | 36:08.27 | 7:13.27 | 162627 | 195128

Track 1

Filename D:musicMusicgate’s ripsMartin Kratochvil & Jazz Q – Martin Kratochvil & Jazz Q – 2007 (Supraphon)CD5 Zvesti (1978)1 – Klekanice.wav

Pre-gap length 0:00:02.00

Peak level 97.7 %
Extraction speed 1.7 X
Track quality 100.0 %
Test CRC D7F476F9
Copy CRC D7F476F9
Accurately ripped (confidence 3) [25B630D6] (AR v2)
Copy OK

Track 2

Filename D:musicMusicgate’s ripsMartin Kratochvil & Jazz Q – Martin Kratochvil & Jazz Q – 2007 (Supraphon)CD5 Zvesti (1978)2 – Vzkriseni.wav

Peak level 97.7 %
Extraction speed 1.9 X
Track quality 100.0 %
Test CRC 1406E5B1
Copy CRC 1406E5B1
Accurately ripped (confidence 3) [5DBAEA3A] (AR v2)
Copy OK

Track 3

Filename D:musicMusicgate’s ripsMartin Kratochvil & Jazz Q – Martin Kratochvil & Jazz Q – 2007 (Supraphon)CD5 Zvesti (1978)3 – Slepej.wav

Peak level 97.5 %
Extraction speed 2.2 X
Track quality 100.0 %
Test CRC 208B89BD
Copy CRC 208B89BD
Accurately ripped (confidence 3) [DDC15DE3] (AR v2)
Copy OK

Track 4

Filename D:musicMusicgate’s ripsMartin Kratochvil & Jazz Q – Martin Kratochvil & Jazz Q – 2007 (Supraphon)CD5 Zvesti (1978)4 – Jinotaj.wav

Peak level 96.8 %
Extraction speed 2.3 X
Track quality 100.0 %
Test CRC F3AB9534
Copy CRC F3AB9534
Accurately ripped (confidence 3) [61BF8991] (AR v2)
Copy OK

Track 5

Filename D:musicMusicgate’s ripsMartin Kratochvil & Jazz Q – Martin Kratochvil & Jazz Q – 2007 (Supraphon)CD5 Zvesti (1978)5 – Trist.wav

Peak level 97.5 %
Extraction speed 2.5 X
Track quality 100.0 %
Test CRC 8AE3A513
Copy CRC 8AE3A513
Accurately ripped (confidence 3) [B42D079F] (AR v2)
Copy OK

Track 6

Filename D:musicMusicgate’s ripsMartin Kratochvil & Jazz Q – Martin Kratochvil & Jazz Q – 2007 (Supraphon)CD5 Zvesti (1978)6 – Korouhvicka.wav

Peak level 97.7 %
Extraction speed 2.3 X
Track quality 99.9 %
Test CRC BDCA5EC2
Copy CRC BDCA5EC2
Accurately ripped (confidence 3) [9257E20A] (AR v2)
Copy OK

Track 7

Filename D:musicMusicgate’s ripsMartin Kratochvil & Jazz Q – Martin Kratochvil & Jazz Q – 2007 (Supraphon)CD5 Zvesti (1978)7 – Krupej.wav

Peak level 97.5 %
Extraction speed 2.7 X
Track quality 100.0 %
Test CRC ED68072F
Copy CRC ED68072F
Accurately ripped (confidence 3) [BCE25522] (AR v2)
Copy OK

Track 8

Filename D:musicMusicgate’s ripsMartin Kratochvil & Jazz Q – Martin Kratochvil & Jazz Q – 2007 (Supraphon)CD5 Zvesti (1978)8 – Vetroplach.wav

Peak level 97.7 %
Extraction speed 3.0 X
Track quality 100.0 %
Test CRC 0D50A33D
Copy CRC 0D50A33D
Accurately ripped (confidence 3) [1CBFC570] (AR v2)
Copy OK

All tracks accurately ripped

No errors occurred

End of status report

==== Log checksum 905D2241B9C2DF9EC139AFBF67B45242C31DE5754B8A01E765BFAEC5E3293916 ====

CUETools log
[CUETools log; Date: 24.12.2016 15:53:13; Version: 2.1.4]
[CTDB TOCID: cz7bRdtYmACcEDjrSR3RmThRSoo-] found.
Track | CTDB Status
1 | (11/11) Accurately ripped
2 | (11/11) Accurately ripped
3 | (11/11) Accurately ripped
4 | (11/11) Accurately ripped
5 | (11/11) Accurately ripped
6 | (11/11) Accurately ripped
7 | (11/11) Accurately ripped
8 | (11/11) Accurately ripped
[AccurateRip ID: 000d53c3-00580648-650a2908] found.
Track [ CRC | V2 ] Status
01 [a4507ae9|25b630d6] (03+06/11) Accurately ripped
02 [2b89a8ff|5dbaea3a] (03+06/11) Accurately ripped
03 [f9159eb8|ddc15de3] (03+06/11) Accurately ripped
04 [097b428b|61bf8991] (03+06/11) Accurately ripped
05 [42062612|b42d079f] (03+06/11) Accurately ripped
06 [d7ca12de|9257e20a] (03+06/11) Accurately ripped
07 [99c091e1|bce25522] (03+06/11) Accurately ripped
08 [93eea1ee|1cbfc570] (03+06/11) Accurately ripped
Offsetted by -691:
01 [8bf76661] (00/11) No match (V2 was not tested)
02 [bd6c5517] (00/11) No match (V2 was not tested)
03 [702bb0dc] (00/11) No match (V2 was not tested)
04 [99c1861e] (00/11) No match (V2 was not tested)
05 [45be0b59] (00/11) No match (V2 was not tested)
06 [887fe5a6] (00/11) No match (V2 was not tested)
07 [e8266a24] (00/11) No match (V2 was not tested)
08 [2f943644] (00/11) No match (V2 was not tested)

Track Peak [ CRC32 ] [W/O NULL] [ LOG ]
– 97,7 [945009C7] [4FA92D8D]
01 97,7 [D7F476F9] [88B638DA] CRC32
02 97,7 [1406E5B1] [5678066A] CRC32
03 97,5 [208B89BD] [2D8894AB] CRC32
04 96,8 [F3AB9534] [8939A43C] CRC32
05 97,5 [8AE3A513] [0993FBEC] CRC32
06 97,7 [BDCA5EC2] [CE9B91BC] CRC32
07 97,5 [ED68072F] [365FC318] CRC32
08 97,7 [0D50A33D] [5F91A390] CRC32

Martin Kratochvíl & Jazz Q - Jazz Q [8CD Box Set] (2007)

CD 6: Hodokvas (1979)
EAC Rip | FLAC (tracks+.cue+log) – 248 MB | MP3 CBR 320 kbps (LAME 3.93) – 103 MB
Genre: Progressive/Jazz Rock | RAR 3% Rec. | Label: Supraphon (SU 5872-2)

Tracklist:
01. Poprask
02. Vřesoviště
03. Madona
04. Pralesní Píseň
05. Dejvické Blues
06. Šerosvit

Total time: 43:46

EAC log
Exact Audio Copy V1.0 beta 3 from 29. August 2011

EAC extraction logfile from 2. November 2013, 15:46

Martin Kratochvil & Jazz Q / CD6 Hodokvas (1979)

Used drive : HL-DT-STDVD-RAM GH22NP20 Adapter: 0 ID: 0

Read mode : Secure
Utilize accurate stream : Yes
Defeat audio cache : Yes
Make use of C2 pointers : No

Read offset correction : 102
Overread into Lead-In and Lead-Out : No
Fill up missing offset samples with silence : Yes
Delete leading and trailing silent blocks : No
Null samples used in CRC calculations : Yes
Used interface : Native Win32 interface for Win NT & 2000
Gap handling : Appended to previous track

Used output format : User Defined Encoder
Selected bitrate : 1024 kBit/s
Quality : High
Add ID3 tag : No
Command line compressor : C:Program FilesExact Audio CopyFlacflac.exe
Additional command line options : -V -8 -T "Genre=%genre%" -T "Artist=%artist%" -T "Title=%title%" -T "Album=%albumtitle%" -T "Date=%year%" -T "Tracknumber=%tracknr%" -T "Comment=%comment%" %source%

TOC of the extracted CD

Track | Start | Length | Start sector | End sector
––––––––––––––––––––––––––––-
1 | 0:00.00 | 7:11.62 | 0 | 32386
2 | 7:11.62 | 5:46.04 | 32387 | 58340
3 | 12:57.66 | 8:04.67 | 58341 | 94707
4 | 21:02.58 | 9:10.13 | 94708 | 135970
5 | 30:12.71 | 5:29.16 | 135971 | 160661
6 | 35:42.12 | 8:02.62 | 160662 | 196873

Track 1

Filename D:musicMusicgate’s ripsMartin Kratochvil & Jazz Q – Martin Kratochvil & Jazz Q – 2007 (Supraphon)CD6 Hodokvas (1979)1 – Poprask.wav

Pre-gap length 0:00:02.00

Peak level 90.3 %
Extraction speed 1.7 X
Track quality 100.0 %
Test CRC 153B7D10
Copy CRC 153B7D10
Accurately ripped (confidence 3) [FB8767E0] (AR v2)
Copy OK

Track 2

Filename D:musicMusicgate’s ripsMartin Kratochvil & Jazz Q – Martin Kratochvil & Jazz Q – 2007 (Supraphon)CD6 Hodokvas (1979)2 – Vresoviste.wav

Peak level 90.4 %
Extraction speed 2.0 X
Track quality 100.0 %
Test CRC 845121C8
Copy CRC 845121C8
Accurately ripped (confidence 3) [01440597] (AR v2)
Copy OK

Track 3

Filename D:musicMusicgate’s ripsMartin Kratochvil & Jazz Q – Martin Kratochvil & Jazz Q – 2007 (Supraphon)CD6 Hodokvas (1979)3 – Madona.wav

Peak level 90.4 %
Extraction speed 2.4 X
Track quality 100.0 %
Test CRC CFD0985B
Copy CRC CFD0985B
Accurately ripped (confidence 3) [17796DF6] (AR v2)
Copy OK

Track 4

Filename D:musicMusicgate’s ripsMartin Kratochvil & Jazz Q – Martin Kratochvil & Jazz Q – 2007 (Supraphon)CD6 Hodokvas (1979)4 – Pralesni pisen.wav

Peak level 90.8 %
Extraction speed 2.7 X
Track quality 100.0 %
Test CRC 0129EF7A
Copy CRC 0129EF7A
Accurately ripped (confidence 3) [B3DB660C] (AR v2)
Copy OK

Track 5

Filename D:musicMusicgate’s ripsMartin Kratochvil & Jazz Q – Martin Kratochvil & Jazz Q – 2007 (Supraphon)CD6 Hodokvas (1979)5 – Dejvicke blues.wav

Peak level 88.5 %
Extraction speed 2.7 X
Track quality 100.0 %
Test CRC 3019E391
Copy CRC 3019E391
Accurately ripped (confidence 3) [ED074C08] (AR v2)
Copy OK

Track 6

Filename D:musicMusicgate’s ripsMartin Kratochvil & Jazz Q – Martin Kratochvil & Jazz Q – 2007 (Supraphon)CD6 Hodokvas (1979)6 – Serosvit.wav

Peak level 90.5 %
Extraction speed 3.0 X
Track quality 100.0 %
Test CRC DEC559E2
Copy CRC DEC559E2
Accurately ripped (confidence 3) [90C199BB] (AR v2)
Copy OK

All tracks accurately ripped

No errors occurred

End of status report

==== Log checksum 73F4F7BE52B5FBC513FE9E78D7FF63F461D06BA9789CF2AE027952FF1D6C3763 ====

CUETools log
[CUETools log; Date: 24.12.2016 15:53:36; Version: 2.1.4]
[CTDB TOCID: yQ9g1NwZQjx5Y64GlYXBuv70ENI-] found.
Track | CTDB Status
1 | (9/9) Accurately ripped
2 | (9/9) Accurately ripped
3 | (9/9) Accurately ripped
4 | (9/9) Accurately ripped
5 | (9/9) Accurately ripped
6 | (9/9) Accurately ripped
[AccurateRip ID: 000a5c1f-00378cff-490a4006] found.
Track [ CRC | V2 ] Status
01 [bb72ef1c|fb8767e0] (04+07/11) Accurately ripped
02 [cfc2ae4d|01440597] (04+07/11) Accurately ripped
03 [3c06429c|17796df6] (04+07/11) Accurately ripped
04 [d3f64965|b3db660c] (04+07/11) Accurately ripped
05 [d25b0e52|ed074c08] (04+07/11) Accurately ripped
06 [1cd2cebe|90c199bb] (03+07/10) Accurately ripped

Track Peak [ CRC32 ] [W/O NULL] [ LOG ]
– 90,8 [91499DD8] [76DB8279]
01 90,3 [153B7D10] [2901FB93] CRC32
02 90,4 [845121C8] [7D499F6F] CRC32
03 90,4 [CFD0985B] [601D914E] CRC32
04 90,8 [0129EF7A] [2E320ED7] CRC32
05 88,5 [3019E391] [DA11FE5F] CRC32
06 90,5 [DEC559E2] [DA30FC37] CRC32

Martin Kratochvíl & Jazz Q - Jazz Q [8CD Box Set] (2007)

CD 7: Hvězdoň (1984)
EAC Rip | FLAC (tracks+.cue+log) – 265 MB | MP3 CBR 320 kbps (LAME 3.93) – 98 MB
Genre: Progressive/Jazz Rock | RAR 3% Rec. | Label: Supraphon (SU 5872-2)

Tracklist:
01. Trhanec
02. Rozepře
03. Procitání
04. Silvestr Na Baštírně
05. Peruť
06. Pivo V Prášku
07. Hvězdoň
08. Boží Člověk

Total time: 41:39

EAC log
Exact Audio Copy V1.0 beta 3 from 29. August 2011

EAC extraction logfile from 2. November 2013, 17:52

Martin Kratochvil & Jazz Q / CD7 Hvezdon (1984)

Used drive : HL-DT-STDVD-RAM GH22NP20 Adapter: 0 ID: 0

Read mode : Secure
Utilize accurate stream : Yes
Defeat audio cache : Yes
Make use of C2 pointers : No

Read offset correction : 102
Overread into Lead-In and Lead-Out : No
Fill up missing offset samples with silence : Yes
Delete leading and trailing silent blocks : No
Null samples used in CRC calculations : Yes
Used interface : Native Win32 interface for Win NT & 2000
Gap handling : Appended to previous track

Used output format : User Defined Encoder
Selected bitrate : 1024 kBit/s
Quality : High
Add ID3 tag : No
Command line compressor : C:Program FilesExact Audio CopyFlacflac.exe
Additional command line options : -V -8 -T "Genre=%genre%" -T "Artist=%artist%" -T "Title=%title%" -T "Album=%albumtitle%" -T "Date=%year%" -T "Tracknumber=%tracknr%" -T "Comment=%comment%" %source%

TOC of the extracted CD

Track | Start | Length | Start sector | End sector
––––––––––––––––––––––––––––-
1 | 0:00.00 | 4:37.49 | 0 | 20823
2 | 4:37.49 | 6:22.20 | 20824 | 49493
3 | 10:59.69 | 4:46.68 | 49494 | 71011
4 | 15:46.62 | 5:55.24 | 71012 | 97660
5 | 21:42.11 | 7:22.47 | 97661 | 130857
6 | 29:04.58 | 5:05.57 | 130858 | 153789
7 | 34:10.40 | 2:13.18 | 153790 | 163782
8 | 36:23.58 | 5:13.66 | 163783 | 187323

Track 1

Filename D:musicMusicgate’s ripsMartin Kratochvil & Jazz Q – Martin Kratochvil & Jazz Q – 2007 (Supraphon)CD7 Hvezdon (1984)1 – Trhanec.wav

Pre-gap length 0:00:02.00

Peak level 97.7 %
Extraction speed 1.6 X
Track quality 100.0 %
Test CRC CF4AC735
Copy CRC CF4AC735
Accurately ripped (confidence 3) [C666F3E3] (AR v2)
Copy OK

Track 2

Filename D:musicMusicgate’s ripsMartin Kratochvil & Jazz Q – Martin Kratochvil & Jazz Q – 2007 (Supraphon)CD7 Hvezdon (1984)2 – Rozepre.wav

Peak level 97.7 %
Extraction speed 1.9 X
Track quality 100.0 %
Test CRC 52B70380
Copy CRC 52B70380
Accurately ripped (confidence 3) [37E8B38F] (AR v2)
Copy OK

Track 3

Filename D:musicMusicgate’s ripsMartin Kratochvil & Jazz Q – Martin Kratochvil & Jazz Q – 2007 (Supraphon)CD7 Hvezdon (1984)3 – Procitani.wav

Peak level 97.7 %
Extraction speed 2.1 X
Track quality 100.0 %
Test CRC 860E05F6
Copy CRC 860E05F6
Accurately ripped (confidence 3) [14087613] (AR v2)
Copy OK

Track 4

Filename D:musicMusicgate’s ripsMartin Kratochvil & Jazz Q – Martin Kratochvil & Jazz Q – 2007 (Supraphon)CD7 Hvezdon (1984)4 – Silvestr na Bastirne.wav

Peak level 97.7 %
Extraction speed 2.4 X
Track quality 100.0 %
Test CRC F87689FC
Copy CRC F87689FC
Accurately ripped (confidence 3) [E150C83C] (AR v2)
Copy OK

Track 5

Filename D:musicMusicgate’s ripsMartin Kratochvil & Jazz Q – Martin Kratochvil & Jazz Q – 2007 (Supraphon)CD7 Hvezdon (1984)5 – Perut.wav

Peak level 97.7 %
Extraction speed 2.6 X
Track quality 100.0 %
Test CRC 08630FC9
Copy CRC 08630FC9
Accurately ripped (confidence 3) [06916F0A] (AR v2)
Copy OK

Track 6

Filename D:musicMusicgate’s ripsMartin Kratochvil & Jazz Q – Martin Kratochvil & Jazz Q – 2007 (Supraphon)CD7 Hvezdon (1984)6 – Pivo v prasku.wav

Pre-gap length 0:00:00.04

Peak level 97.7 %
Extraction speed 2.4 X
Track quality 99.9 %
Test CRC 343C0842
Copy CRC 343C0842
Accurately ripped (confidence 3) [DB66A4FB] (AR v2)
Copy OK

Track 7

Filename D:musicMusicgate’s ripsMartin Kratochvil & Jazz Q – Martin Kratochvil & Jazz Q – 2007 (Supraphon)CD7 Hvezdon (1984)7 – Hvezdon.wav

Peak level 97.7 %
Extraction speed 2.4 X
Track quality 100.0 %
Test CRC 5D16185B
Copy CRC 5D16185B
Accurately ripped (confidence 3) [D5DCF18A] (AR v2)
Copy OK

Track 8

Filename D:musicMusicgate’s ripsMartin Kratochvil & Jazz Q – Martin Kratochvil & Jazz Q – 2007 (Supraphon)CD7 Hvezdon (1984)8 – Bozi clovek.wav

Peak level 97.7 %
Extraction speed 2.9 X
Track quality 100.0 %
Test CRC 5C990AA1
Copy CRC 5C990AA1
Accurately ripped (confidence 3) [C464088E] (AR v2)
Copy OK

All tracks accurately ripped

No errors occurred

End of status report

==== Log checksum 92FA4E1C71DAEF23C3A3735BBC2C1BFAD6310B4FBEDC8F725A0B35D6D3972D86 ====

CUETools log
[CUETools log; Date: 24.12.2016 15:54:09; Version: 2.1.4]
[CTDB TOCID: sFpk12rPD1dhpBImpSFycpNb6l0-] found.
Track | CTDB Status
1 | (9/9) Accurately ripped
2 | (9/9) Accurately ripped
3 | (9/9) Accurately ripped
4 | (9/9) Accurately ripped
5 | (9/9) Accurately ripped
6 | (9/9) Accurately ripped
7 | (9/9) Accurately ripped
8 | (9/9) Accurately ripped
[AccurateRip ID: 000d58fa-0058cfb6-6909c108] found.
Track [ CRC | V2 ] Status
01 [54370cf3|c666f3e3] (03+06/09) Accurately ripped
02 [d749b25c|37e8b38f] (03+07/10) Accurately ripped
03 [47097cc7|14087613] (03+07/10) Accurately ripped
04 [1cd57576|e150c83c] (03+07/10) Accurately ripped
05 [2e6ea9ba|06916f0a] (03+07/10) Accurately ripped
06 [1cf5f09d|db66a4fb] (03+07/10) Accurately ripped
07 [d43a8ca0|d5dcf18a] (03+07/10) Accurately ripped
08 [9a6befc5|c464088e] (03+07/10) Accurately ripped

Track Peak [ CRC32 ] [W/O NULL] [ LOG ]
– 97,7 [6251649A] [0D4B6C8C]
01 97,7 [CF4AC735] [9996CF26] CRC32
02 97,7 [52B70380] [B3113DD6] CRC32
03 97,7 [860E05F6] [CA672DE8] CRC32
04 97,7 [F87689FC] [4D816174] CRC32
05 97,7 [08630FC9] [09D8D7A2] CRC32
06 97,7 [343C0842] [9004EB15] CRC32
07 97,7 [5D16185B] [584C6F80] CRC32
08 97,7 [5C990AA1] [6F4B140F] CRC32

Martin Kratochvíl & Jazz Q - Jazz Q [8CD Box Set] (2007)

CD 8: Bonusy (2007)
EAC Rip | FLAC (tracks+.cue+log) – 502 MB | MP3 CBR 320 kbps (LAME 3.93) – 169 MB
Genre: Progressive/Jazz Rock | RAR 3% Rec. | Label: Supraphon (SU 5872-2)

Tracklist:
01. Blues Starý Ženský
02. Zlý Sen
03. Jsem Svá
04. Ovčí Vlna
05. Blues Holky Na Vdávání
06. Velký Bohém
07. Pražské Boogie
08. Zatmění Měsíce
09. Blues Podzimního Odpoledne
10. Obchodník S Deštěm
11. What A Way To Start
12. Why Do I Have To Move
13. Konstelace
14. Svědek Světa (Witness To The World)
15. Good Bye

Total time: 01:12:04

EAC log
Exact Audio Copy V1.0 beta 3 from 29. August 2011

EAC extraction logfile from 2. November 2013, 17:07

Martin Kratochvil & Jazz Q / CD8 Bonusy

Used drive : HL-DT-STDVD-RAM GH22NP20 Adapter: 0 ID: 0

Read mode : Secure
Utilize accurate stream : Yes
Defeat audio cache : Yes
Make use of C2 pointers : No

Read offset correction : 102
Overread into Lead-In and Lead-Out : No
Fill up missing offset samples with silence : Yes
Delete leading and trailing silent blocks : No
Null samples used in CRC calculations : Yes
Used interface : Native Win32 interface for Win NT & 2000
Gap handling : Appended to previous track

Used output format : User Defined Encoder
Selected bitrate : 1024 kBit/s
Quality : High
Add ID3 tag : No
Command line compressor : C:Program FilesExact Audio CopyFlacflac.exe
Additional command line options : -V -8 -T "Genre=%genre%" -T "Artist=%artist%" -T "Title=%title%" -T "Album=%albumtitle%" -T "Date=%year%" -T "Tracknumber=%tracknr%" -T "Comment=%comment%" %source%

TOC of the extracted CD

Track | Start | Length | Start sector | End sector
––––––––––––––––––––––––––––-
1 | 0:00.00 | 4:48.14 | 0 | 21613
2 | 4:48.14 | 5:56.44 | 21614 | 48357
3 | 10:44.58 | 3:31.20 | 48358 | 64202
4 | 14:16.03 | 4:58.70 | 64203 | 86622
5 | 19:14.73 | 5:02.62 | 86623 | 109334
6 | 24:17.60 | 4:19.23 | 109335 | 128782
7 | 28:37.08 | 3:30.47 | 128783 | 144579
8 | 32:07.55 | 4:32.23 | 144580 | 165002
9 | 36:40.03 | 4:16.44 | 165003 | 184246
10 | 40:56.47 | 3:45.71 | 184247 | 201192
11 | 44:42.43 | 2:18.08 | 201193 | 211550
12 | 47:00.51 | 2:55.05 | 211551 | 224680
13 | 49:55.56 | 6:32.16 | 224681 | 254096
14 | 56:27.72 | 6:30.07 | 254097 | 283353
15 | 62:58.04 | 9:04.54 | 283354 | 324207

Track 1

Filename D:musicMusicgate’s ripsMartin Kratochvil & Jazz Q – Martin Kratochvil & Jazz Q – 2007 (Supraphon)CD8 Bonusy1 – Blues stary zensky.wav

Pre-gap length 0:00:02.00

Peak level 97.7 %
Extraction speed 1.6 X
Track quality 99.9 %
Test CRC 2E555F61
Copy CRC 2E555F61
Accurately ripped (confidence 3) [11DE2BA5] (AR v2)
Copy OK

Track 2

Filename D:musicMusicgate’s ripsMartin Kratochvil & Jazz Q – Martin Kratochvil & Jazz Q – 2007 (Supraphon)CD8 Bonusy2 – Zly sen.wav

Peak level 97.5 %
Extraction speed 1.9 X
Track quality 99.9 %
Test CRC 8ABB85B0
Copy CRC 8ABB85B0
Accurately ripped (confidence 3) [7A683E53] (AR v2)
Copy OK

Track 3

Filename D:musicMusicgate’s ripsMartin Kratochvil & Jazz Q – Martin Kratochvil & Jazz Q – 2007 (Supraphon)CD8 Bonusy3 – Jsem sva.wav

Peak level 97.5 %
Extraction speed 2.2 X
Track quality 100.0 %
Test CRC 4935295C
Copy CRC 4935295C
Accurately ripped (confidence 3) [9223C417] (AR v2)
Copy OK

Track 4

Filename D:musicMusicgate’s ripsMartin Kratochvil & Jazz Q – Martin Kratochvil & Jazz Q – 2007 (Supraphon)CD8 Bonusy4 – Ovci vlna.wav

Peak level 97.5 %
Extraction speed 2.4 X
Track quality 100.0 %
Test CRC 8D10DA7C
Copy CRC 8D10DA7C
Accurately ripped (confidence 3) [2B537DD8] (AR v2)
Copy OK

Track 5

Filename D:musicMusicgate’s ripsMartin Kratochvil & Jazz Q – Martin Kratochvil & Jazz Q – 2007 (Supraphon)CD8 Bonusy5 – Blues holky na vdavani.wav

Peak level 97.5 %
Extraction speed 2.6 X
Track quality 100.0 %
Test CRC C0E7B65C
Copy CRC C0E7B65C
Accurately ripped (confidence 3) [49D1952D] (AR v2)
Copy OK

Track 6

Filename D:musicMusicgate’s ripsMartin Kratochvil & Jazz Q – Martin Kratochvil & Jazz Q – 2007 (Supraphon)CD8 Bonusy6 – Velky bohem.wav

Pre-gap length 0:00:00.01

Peak level 97.5 %
Extraction speed 2.3 X
Track quality 99.9 %
Test CRC 61E6E3CF
Copy CRC 61E6E3CF
Accurately ripped (confidence 3) [C368FDAF] (AR v2)
Copy OK

Track 7

Filename D:musicMusicgate’s ripsMartin Kratochvil & Jazz Q – Martin Kratochvil & Jazz Q – 2007 (Supraphon)CD8 Bonusy7 – Prazske boogie.wav

Peak level 97.5 %
Extraction speed 2.6 X
Track quality 100.0 %
Test CRC 42633073
Copy CRC 42633073
Accurately ripped (confidence 3) [C9BF70A7] (AR v2)
Copy OK

Track 8

Filename D:musicMusicgate’s ripsMartin Kratochvil & Jazz Q – Martin Kratochvil & Jazz Q – 2007 (Supraphon)CD8 Bonusy8 – Zatmeni mesice.wav

Peak level 97.5 %
Extraction speed 2.8 X
Track quality 100.0 %
Test CRC CC7C0083
Copy CRC CC7C0083
Accurately ripped (confidence 3) [93E6C554] (AR v2)
Copy OK

Track 9

Filename D:musicMusicgate’s ripsMartin Kratochvil & Jazz Q – Martin Kratochvil & Jazz Q – 2007 (Supraphon)CD8 Bonusy9 – Blues podzimniho odpoledne.wav

Peak level 97.7 %
Extraction speed 2.9 X
Track quality 100.0 %
Test CRC F582A062
Copy CRC F582A062
Accurately ripped (confidence 3) [2AFFA4DB] (AR v2)
Copy OK

Track 10

Filename D:musicMusicgate’s ripsMartin Kratochvil & Jazz Q – Martin Kratochvil & Jazz Q – 2007 (Supraphon)CD8 Bonusy10 – Obchodnik s destem.wav

Peak level 82.3 %
Extraction speed 3.0 X
Track quality 100.0 %
Test CRC 968C565A
Copy CRC 968C565A
Accurately ripped (confidence 3) [7975254E] (AR v2)
Copy OK

Track 11

Filename D:musicMusicgate’s ripsMartin Kratochvil & Jazz Q – Martin Kratochvil & Jazz Q – 2007 (Supraphon)CD8 Bonusy11 – What A Way To Start.wav

Peak level 97.7 %
Extraction speed 2.3 X
Track quality 99.9 %
Test CRC FE7C3805
Copy CRC FE7C3805
Accurately ripped (confidence 3) [D839F7C3] (AR v2)
Copy OK

Track 12

Filename D:musicMusicgate’s ripsMartin Kratochvil & Jazz Q – Martin Kratochvil & Jazz Q – 2007 (Supraphon)CD8 Bonusy12 – Why Do I Have To Move.wav

Peak level 97.7 %
Extraction speed 3.0 X
Track quality 100.0 %
Test CRC 42CDED53
Copy CRC 42CDED53
Accurately ripped (confidence 3) [DE1D63F3] (AR v2)
Copy OK

Track 13

Filename D:musicMusicgate’s ripsMartin Kratochvil & Jazz Q – Martin Kratochvil & Jazz Q – 2007 (Supraphon)CD8 Bonusy13 – Konstelace.wav

Peak level 97.7 %
Extraction speed 3.5 X
Track quality 100.0 %
Test CRC 96AD1255
Copy CRC 96AD1255
Accurately ripped (confidence 3) [C887C039] (AR v2)
Copy OK

Track 14

Filename D:musicMusicgate’s ripsMartin Kratochvil & Jazz Q – Martin Kratochvil & Jazz Q – 2007 (Supraphon)CD8 Bonusy14 – Witness To The World (Svedek sveta).wav

Peak level 97.5 %
Extraction speed 3.3 X
Track quality 99.9 %
Test CRC 34BC7B40
Copy CRC 34BC7B40
Accurately ripped (confidence 3) [6ED2B4FD] (AR v2)
Copy OK

Track 15

Filename D:musicMusicgate’s ripsMartin Kratochvil & Jazz Q – Martin Kratochvil & Jazz Q – 2007 (Supraphon)CD8 Bonusy15 – Good Bye!.wav

Peak level 97.7 %
Extraction speed 3.9 X
Track quality 100.0 %
Test CRC B73FAC56
Copy CRC B73FAC56
Accurately ripped (confidence 3) [783A16E3] (AR v2)
Copy OK

All tracks accurately ripped

No errors occurred

End of status report

==== Log checksum 71CEA4886C4DDDD8DF548BAAD029A161F2A1D28574AC19F44CD93DACCE6A1798 ====

CUETools log
[CUETools log; Date: 24.12.2016 15:54:40; Version: 2.1.4]
[CTDB TOCID: lFvSAv.dPCISdr0UcKI_G5.gf7Q-] found.
Track | CTDB Status
1 | (8/8) Accurately ripped
2 | (8/8) Accurately ripped
3 | (8/8) Accurately ripped
4 | (8/8) Accurately ripped
5 | (8/8) Accurately ripped
6 | (8/8) Accurately ripped
7 | (8/8) Accurately ripped
8 | (8/8) Accurately ripped
9 | (8/8) Accurately ripped
10 | (8/8) Accurately ripped
11 | (8/8) Accurately ripped
12 | (8/8) Accurately ripped
13 | (8/8) Accurately ripped
14 | (8/8) Accurately ripped
15 | (8/8) Accurately ripped
[AccurateRip ID: 00256976-01a4f372-f810e20f] found.
Track [ CRC | V2 ] Status
01 [cfd12114|11de2ba5] (3+6/9) Accurately ripped
02 [30efca4a|7a683e53] (3+6/9) Accurately ripped
03 [cca66188|9223c417] (3+6/9) Accurately ripped
04 [d2d984c8|2b537dd8] (3+6/9) Accurately ripped
05 [9792c2d7|49d1952d] (3+6/9) Accurately ripped
06 [593f1feb|c368fdaf] (3+6/9) Accurately ripped
07 [b636b4cf|c9bf70a7] (3+6/9) Accurately ripped
08 [1cf66cd6|93e6c554] (3+6/9) Accurately ripped
09 [a48a31df|2affa4db] (3+6/9) Accurately ripped
10 [29d7c757|7975254e] (3+6/9) Accurately ripped
11 [9f7b62b3|d839f7c3] (3+6/9) Accurately ripped
12 [e9ebe39a|de1d63f3] (3+6/9) Accurately ripped
13 [52a10fb8|c887c039] (3+6/9) Accurately ripped
14 [92ae7c8e|6ed2b4fd] (3+6/9) Accurately ripped
15 [cd846b49|783a16e3] (3+6/9) Accurately ripped

Track Peak [ CRC32 ] [W/O NULL] [ LOG ]
– 97,7 [4C93D2AC] [0CB572CD]
01 97,7 [2E555F61] [3BF872A5] CRC32
02 97,5 [8ABB85B0] [BB9B6A4A] CRC32
03 97,5 [4935295C] [A6EA3798] CRC32
04 97,5 [8D10DA7C] [B152ABCA] CRC32
05 97,5 [C0E7B65C] [BD796629] CRC32
06 97,5 [61E6E3CF] [989D4389] CRC32
07 97,5 [42633073] [B57A25B8] CRC32
08 97,5 [CC7C0083] [28CD2EC7] CRC32
09 97,7 [F582A062] [1AF6EEAC] CRC32
10 82,3 [968C565A] [0B297F51] CRC32
11 97,7 [FE7C3805] [BF121BF2] CRC32
12 97,7 [42CDED53] [8B355734] CRC32
13 97,7 [96AD1255] [01E8CDB5] CRC32
14 97,5 [34BC7B40] [B9D16175] CRC32
15 97,7 [B73FAC56] [CCFAAF92] CRC32

Thanks to Musicgate

Welcome to My Blog!

Martin Kratochvíl & Jazz Q – Jazz Q [8CD Box Set] (2007) Download, Warez, DDL, Free, Full Album, Torrent, Legal.

Download