Martin Jones – Brahms: Complete Piano Music (1992)

Download
Martin Jones - Brahms: Complete Piano Music (1992)

Martin Jones – Brahms: Complete Piano Music (1992)
EAC Rip | FLAC (tracks+log+.cue) – 1,15 Gb | Scans – 5 Mb | 07:19:19
Classical | Label: Nimbus Records

As complete sets of Brahms piano music go, it’s hard to get more complete than this set by Martin Jones on Nimbus. Jones includes not only the canonical two Rhapsodies, three Sonatas, four Ballades, six sets of variations, ten Hungarian Dances, sixteen Waltzes and twenty-eight short piano pieces, but also the almost forgotten sarabandes, gigues, gavottes, studies, canons and transcriptions. Listeners looking for the most complete Brahms available need look no further. Listeners who do look no further, however, will have to settle for good but by no means great performances. Jones has a big tone coupled to an impressive technique and many of his performances are quite fine. But too often here he seems to be merely going through the motions, turning in accomplished but unexciting sometimes even dutiful performances. When extroverted virtuosity is called for in the Paganini Variations, Jones is almost but not altogether on top of the notes. When introverted soulfulness is called for in the late Intermezzos, Jones is nearly but not entirely inside the music. When textural clarity is called for in the Handel Variations and Fugue, Jones is clear but not absolutely lucid. And when heart-breaking tragedy is called for in the Ballades, Jones can play the notes but their meaning seems beyond him. Everyone who loves Brahms solo piano music will have to hear this set for its completeness – after all, how many other recordings of Brahms’ transcription of Gluck’s Gavotte are there? – but anyone who loves Brahms solo piano music will also have to hear other recordings of the major works in order to appreciate their true greatness.

Tracklist:
CD1 [1h15’44"]
(01-04) Piano Sonata № 1 C-Dur Op. 1 [27’53"]
(05) Scherzo Es-Dur Op. 4 [9’52"]
(06-09) Piano Sonata № 2 fis-moll Op. 2 [25’38"]
(10) Study For The Left Hand (Schubert D.889/2) [4’49"]
(11) Study № 1 (Chopin Op. 25/2) [3’00"]
(12) Study № 2 (Weber Op. 24) [4’32"]

CD2 [1h14’31"]
(01-04) Four Ballades Op. 10 [21’22"]
(05-06) Variations On A Theme Of Robert Schumann Op. 9 [17’50"]
(07-11) Piano Sonata № 3 f-moll Op. 5 [35’19"]

CD3 [1h07’49"]
(01) Theme And Variations d-moll (fr. String Sextet Op. 180) [9’39"]
(02-03) Theme And Variations On An Original Theme Op. 21/1 [16’28"]
(04) Variations I-XIII On A Hungarian Song Op. 21/2 [7’16"]
(05) Sarabande A-Dur [1’32"]
(06) Gigue a-moll [2’12"]
(07) Sarabande h-moll [2’10"]
(08) Gigue h-moll [2’09"]
(09-11) Variations And Fugue On A Theme Of Händel Op. 24 [26’23"]

CD4 [1h15’26"]
(01-02) Variations On A Theme Of Paganini Op. 35 [22’45"]
(03-04) 16 Waltzes Op. 39 [22’18"]
(05-14) Hungarian Dances [27’21"]
(15) Gavotte (Glück, Arranged For Piano) [3’02"]

CD5 [1h12’95"]
(01-08) 8 Klavierstücke Op. 76 [26’13"]
(09-10) Two Rhapsodies Op. 79 [15’44"]
(11) Study № 5 (Chaconne J. S. Bach) [15’24"]
(12) Study № 3 (J. S. Bach Version I) [3’33"]
(13) Sarabande And Two Gavottes [5’04"]
(14) Kanon [0’34"]
(15) Kanon (Inverted) [0’40"]
(16) Study № 4 (J. S. Bach version II) [3’44"]
(17) Kleine Klavierstücke [1’09"]

CD6 [1h13’44"]
(01-07) Fantasies Op. 116 [22’09"]
(08-10) Klavierstücke Op. 117 [13’49"]
(11-16) Klavierstücke Op. 118 [22’14"]
(17-20) Klavierstücke Op. 119 [15’32"]

EAC CD1
Exact Audio Copy V1.0 beta 3 from 29. August 2011

EAC extraction logfile from 24. May 2012, 22:12

Brahms / Complete Piano Music

Used drive : PIONEER DVD-RW DVR-111D Adapter: 1 ID: 1

Read mode : Secure
Utilize accurate stream : Yes
Defeat audio cache : Yes
Make use of C2 pointers : No

Read offset correction : 48
Overread into Lead-In and Lead-Out : No
Fill up missing offset samples with silence : Yes
Delete leading and trailing silent blocks : No
Null samples used in CRC calculations : Yes
Used interface : Native Win32 interface for Win NT & 2000
Gap handling : Appended to previous track

Used output format : User Defined Encoder
Selected bitrate : 1024 kBit/s
Quality : High
Add ID3 tag : No
Command line compressor : C:Program FilesFLACflac.exe
Additional command line options : -8 -V -T "Genre=%genre%" -T "Artist=%artist%" -T "Title=%title%" -T "Album=%albumtitle%" -T "Date=%year%" -T "Tracknumber=%tracknr%" %source%

TOC of the extracted CD

Track | Start | Length | Start sector | End sector
––––––––––––––––––––––––––––-
1 | 0:00.00 | 10:29.00 | 0 | 47174
2 | 10:29.00 | 5:13.70 | 47175 | 70719
3 | 15:42.70 | 5:45.05 | 70720 | 96599
4 | 21:28.00 | 6:25.00 | 96600 | 125474
5 | 27:53.00 | 9:52.00 | 125475 | 169874
6 | 37:45.00 | 6:00.00 | 169875 | 196874
7 | 43:45.00 | 4:42.40 | 196875 | 218064
8 | 48:27.40 | 3:41.35 | 218065 | 234674
9 | 52:09.00 | 11:14.00 | 234675 | 285224
10 | 63:23.00 | 4:49.00 | 285225 | 306899
11 | 68:12.00 | 3:00.00 | 306900 | 320399
12 | 71:12.00 | 4:32.00 | 320400 | 340799

Track 1

Filename C:MusicJ.Brahms. Complete Piano Music. M.JonesCD 11 Sonata No. 1 C Op. 1.1 Allegro.wav

Pre-gap length 0:00:02.00

Peak level 73.3 %
Extraction speed 4.3 X
Track quality 100.0 %
Test CRC 87871AD4
Copy CRC 87871AD4
Accurately ripped (confidence 6) [74CB34A6] (AR v2)
Copy OK

Track 2

Filename C:MusicJ.Brahms. Complete Piano Music. M.JonesCD 12 Sonata No. 1 C Op. 1.2 Andante.wav

Peak level 53.0 %
Extraction speed 4.7 X
Track quality 100.0 %
Test CRC DA2737EE
Copy CRC DA2737EE
Accurately ripped (confidence 6) [0BAEBFE6] (AR v2)
Copy OK

Track 3

Filename C:MusicJ.Brahms. Complete Piano Music. M.JonesCD 13 Sonata No. 1 C Op. 1.3 Scherzo- Allegro molto e con fuoco.wav

Peak level 71.0 %
Extraction speed 5.1 X
Track quality 100.0 %
Test CRC 41D86730
Copy CRC 41D86730
Accurately ripped (confidence 6) [5F65199D] (AR v2)
Copy OK

Track 4

Filename C:MusicJ.Brahms. Complete Piano Music. M.JonesCD 14 Sonata No. 1 C Op. 1.4 Finale- Allegro con fuoco.wav

Peak level 70.3 %
Extraction speed 5.5 X
Track quality 100.0 %
Test CRC 7F830DCC
Copy CRC 7F830DCC
Accurately ripped (confidence 6) [8A61354C] (AR v2)
Copy OK

Track 5

Filename C:MusicJ.Brahms. Complete Piano Music. M.JonesCD 15 Scherzo Ebm Op. 4.wav

Peak level 53.5 %
Extraction speed 6.1 X
Track quality 100.0 %
Test CRC 39F89753
Copy CRC 39F89753
Accurately ripped (confidence 6) [7BC11649] (AR v2)
Copy OK

Track 6

Filename C:MusicJ.Brahms. Complete Piano Music. M.JonesCD 16 Sonata No. 2 F#m Op. 2.1 Allegro non troppo, ma energico.wav

Peak level 68.8 %
Extraction speed 6.2 X
Track quality 100.0 %
Test CRC BEE704D0
Copy CRC BEE704D0
Accurately ripped (confidence 6) [B56DE36B] (AR v2)
Copy OK

Track 7

Filename C:MusicJ.Brahms. Complete Piano Music. M.JonesCD 17 Sonata No. 2 F#m Op. 2.2 Andante con espressione.wav

Peak level 57.0 %
Extraction speed 5.6 X
Track quality 99.9 %
Test CRC 03F5E131
Copy CRC 03F5E131
Accurately ripped (confidence 6) [C14FA0E7] (AR v2)
Copy OK

Track 8

Filename C:MusicJ.Brahms. Complete Piano Music. M.JonesCD 18 Sonata No. 2 F#m Op. 2.3 Scherzo & Trio- Allegro – Poco piu moderato.wav

Peak level 53.4 %
Extraction speed 5.9 X
Track quality 100.0 %
Test CRC 242E270F
Copy CRC 242E270F
Accurately ripped (confidence 6) [E6D49C84] (AR v2)
Copy OK

Track 9

Filename C:MusicJ.Brahms. Complete Piano Music. M.JonesCD 19 Sonata No. 2 F#m Op. 2.4 Finale- Introduzione- Sostenuto – Allegro non troppo e rubato.wav

Peak level 66.9 %
Extraction speed 7.1 X
Track quality 100.0 %
Test CRC 8C6F8A97
Copy CRC 8C6F8A97
Accurately ripped (confidence 6) [2310E7DD] (AR v2)
Copy OK

Track 10

Filename C:MusicJ.Brahms. Complete Piano Music. M.JonesCD 110 Study for the Left Hand Impromptu by Schubert, D.889 No.2.wav

Peak level 56.5 %
Extraction speed 7.0 X
Track quality 100.0 %
Test CRC AF052601
Copy CRC AF052601
Accurately ripped (confidence 6) [E88F79F5] (AR v2)
Copy OK

Track 11

Filename C:MusicJ.Brahms. Complete Piano Music. M.JonesCD 111 Study No. 1 Etude after Chopin, Op. 25 No. 2.wav

Peak level 31.9 %
Extraction speed 6.8 X
Track quality 100.0 %
Test CRC 7AE7A12C
Copy CRC 7AE7A12C
Accurately ripped (confidence 6) [0559DD82] (AR v2)
Copy OK

Track 12

Filename C:MusicJ.Brahms. Complete Piano Music. M.JonesCD 112 Study No. 2 Rondo after Weber, Op. 24.wav

Peak level 59.8 %
Extraction speed 7.2 X
Track quality 100.0 %
Test CRC 9DDF4DB0
Copy CRC 9DDF4DB0
Accurately ripped (confidence 6) [3804D287] (AR v2)
Copy OK

All tracks accurately ripped

No errors occurred

End of status report

–– CUETools DB Plugin V2.1.4

[CTDB TOCID: b1yDlGO5iSF.g.leOv.EOTufdmM-] found
Submit result: already submitted
Track | CTDB Status
1 | (14/14) Accurately ripped
2 | (14/14) Accurately ripped
3 | (14/14) Accurately ripped
4 | (14/14) Accurately ripped
5 | (14/14) Accurately ripped
6 | (14/14) Accurately ripped
7 | (14/14) Accurately ripped
8 | (14/14) Accurately ripped
9 | (14/14) Accurately ripped
10 | (14/14) Accurately ripped
11 | (14/14) Accurately ripped
12 | (14/14) Accurately ripped

==== Log checksum F4D92821E89CD1DF67327B0DA05A36281ADFCF064E8C2E73228126A5A5B7AAD8 ====

EAC CD2
Exact Audio Copy V1.0 beta 3 from 29. August 2011

EAC extraction logfile from 24. May 2012, 23:51

Brahms / Complete Piano Works

Used drive : PIONEER DVD-RW DVR-111D Adapter: 1 ID: 1

Read mode : Secure
Utilize accurate stream : Yes
Defeat audio cache : Yes
Make use of C2 pointers : No

Read offset correction : 48
Overread into Lead-In and Lead-Out : No
Fill up missing offset samples with silence : Yes
Delete leading and trailing silent blocks : No
Null samples used in CRC calculations : Yes
Used interface : Native Win32 interface for Win NT & 2000
Gap handling : Appended to previous track

Used output format : User Defined Encoder
Selected bitrate : 1024 kBit/s
Quality : High
Add ID3 tag : No
Command line compressor : C:Program FilesFLACflac.exe
Additional command line options : -8 -V -T "Genre=%genre%" -T "Artist=%artist%" -T "Title=%title%" -T "Album=%albumtitle%" -T "Date=%year%" -T "Tracknumber=%tracknr%" %source%

TOC of the extracted CD

Track | Start | Length | Start sector | End sector
––––––––––––––––––––––––––––-
1 | 0:00.00 | 4:04.00 | 0 | 18299
2 | 4:04.00 | 6:01.00 | 18300 | 45374
3 | 10:05.00 | 3:43.00 | 45375 | 62099
4 | 13:48.00 | 7:34.00 | 62100 | 96149
5 | 21:22.00 | 6:58.00 | 96150 | 127499
6 | 28:20.00 | 10:52.00 | 127500 | 176399
7 | 39:12.00 | 9:53.00 | 176400 | 220874
8 | 49:05.00 | 9:49.00 | 220875 | 265049
9 | 58:54.00 | 4:18.00 | 265050 | 284399
10 | 63:12.00 | 4:09.00 | 284400 | 303074
11 | 67:21.00 | 7:10.00 | 303075 | 335324

Track 1

Filename C:MusicJ.Brahms. Complete Piano Music. M.JonesCD 21 Four Ballades Op. 10 No. 1 Andante – Allegro – Andante.wav

Pre-gap length 0:00:02.00

Peak level 38.6 %
Extraction speed 3.3 X
Track quality 99.9 %
Test CRC A2C9D7BA
Copy CRC A2C9D7BA
Accurately ripped (confidence 7) [3819FDEB] (AR v2)
Copy OK

Track 2

Filename C:MusicJ.Brahms. Complete Piano Music. M.JonesCD 22 Four Ballades Op. 10 No. 2 Andante – Allegro non troppo – Andante.wav

Peak level 42.0 %
Extraction speed 4.3 X
Track quality 100.0 %
Test CRC 77A6C0C5
Copy CRC 77A6C0C5
Accurately ripped (confidence 7) [D1138AC5] (AR v2)
Copy OK

Track 3

Filename C:MusicJ.Brahms. Complete Piano Music. M.JonesCD 23 Four Ballades Op. 10 No. 3 Intermezzo- Allegro.wav

Peak level 34.9 %
Extraction speed 4.4 X
Track quality 100.0 %
Test CRC 6482E846
Copy CRC 6482E846
Accurately ripped (confidence 7) [F9D3A0AF] (AR v2)
Copy OK

Track 4

Filename C:MusicJ.Brahms. Complete Piano Music. M.JonesCD 24 Four Ballades Op. 10 No. 4 Andante con moto – Piu lento – Tempo I.wav

Peak level 17.3 %
Extraction speed 5.1 X
Track quality 100.0 %
Test CRC DC7E1278
Copy CRC DC7E1278
Accurately ripped (confidence 7) [0C8783AE] (AR v2)
Copy OK

Track 5

Filename C:MusicJ.Brahms. Complete Piano Music. M.JonesCD 25 Variations on a theme of Robert Schumann, Op. 9 Theme and Variations I-VI.wav

Peak level 55.4 %
Extraction speed 5.2 X
Track quality 99.9 %
Test CRC B1329642
Copy CRC B1329642
Accurately ripped (confidence 7) [7CA040CD] (AR v2)
Copy OK

Track 6

Filename C:MusicJ.Brahms. Complete Piano Music. M.JonesCD 26 Variations on a theme of Robert Schumann, Op. 9 Theme and Variations VII-XVI.wav

Peak level 55.9 %
Extraction speed 5.9 X
Track quality 99.9 %
Test CRC 0CEBF839
Copy CRC 0CEBF839
Accurately ripped (confidence 7) [526F164C] (AR v2)
Copy OK

Track 7

Filename C:MusicJ.Brahms. Complete Piano Music. M.JonesCD 27 Sonata No. 3 Fm Op. 5.1 Allegro maestoso.wav

Peak level 69.6 %
Extraction speed 5.9 X
Track quality 100.0 %
Test CRC FEF97434
Copy CRC FEF97434
Accurately ripped (confidence 7) [C5EA9C06] (AR v2)
Copy OK

Track 8

Filename C:MusicJ.Brahms. Complete Piano Music. M.JonesCD 28 Sonata No. 3 Fm Op. 5.2 Andante- Andante espressivo.wav

Peak level 75.8 %
Extraction speed 7.1 X
Track quality 100.0 %
Test CRC BF509FD5
Copy CRC BF509FD5
Accurately ripped (confidence 7) [D67CE8D7] (AR v2)
Copy OK

Track 9

Filename C:MusicJ.Brahms. Complete Piano Music. M.JonesCD 29 Sonata No. 3 Fm Op. 5.3 Scherzo & Trio- Allegro energico.wav

Peak level 71.9 %
Extraction speed 6.6 X
Track quality 100.0 %
Test CRC B37070DD
Copy CRC B37070DD
Accurately ripped (confidence 7) [487F3416] (AR v2)
Copy OK

Track 10

Filename C:MusicJ.Brahms. Complete Piano Music. M.JonesCD 210 Sonata No. 3 Fm Op. 5.4 Intermezzo- Andante molto.wav

Peak level 71.2 %
Extraction speed 6.2 X
Track quality 99.9 %
Test CRC B42A3D2A
Copy CRC B42A3D2A
Accurately ripped (confidence 7) [9FCA3E4D] (AR v2)
Copy OK

Track 11

Filename C:MusicJ.Brahms. Complete Piano Music. M.JonesCD 211 Sonata No. 3 Fm Op. 5.5 Finale- Allegro moderato ma rubato.wav

Peak level 66.5 %
Extraction speed 7.6 X
Track quality 100.0 %
Test CRC 162918F6
Copy CRC 162918F6
Accurately ripped (confidence 7) [B2912085] (AR v2)
Copy OK

All tracks accurately ripped

No errors occurred

End of status report

–– CUETools DB Plugin V2.1.4

[CTDB TOCID: 7F9Pfk3BHQeX.kGI2Ox1dvL23i8-] found
Submit result: 7F9Pfk3BHQeX.kGI2Ox1dvL23i8- has been confirmed
Track | CTDB Status
1 | (14/14) Accurately ripped
2 | (14/14) Accurately ripped
3 | (14/14) Accurately ripped
4 | (14/14) Accurately ripped
5 | (14/14) Accurately ripped
6 | (14/14) Accurately ripped
7 | (14/14) Accurately ripped
8 | (14/14) Accurately ripped
9 | (14/14) Accurately ripped
10 | (14/14) Accurately ripped
11 | (14/14) Accurately ripped

==== Log checksum FCB65A2A0FEF4EC0A7B94CE3DA496B4637638FA8D52BBA80EC803649DC280D04 ====

EAC CD3
Exact Audio Copy V1.0 beta 3 from 29. August 2011

EAC extraction logfile from 26. May 2012, 22:47

Brahms / Complete Piano Music, Martin Jones – CD3

Used drive : _NEC DVD_RW ND-3520A Adapter: 2 ID: 0

Read mode : Secure
Utilize accurate stream : Yes
Defeat audio cache : Yes
Make use of C2 pointers : No

Read offset correction : 48
Overread into Lead-In and Lead-Out : No
Fill up missing offset samples with silence : Yes
Delete leading and trailing silent blocks : No
Null samples used in CRC calculations : Yes
Used interface : Native Win32 interface for Win NT & 2000
Gap handling : Appended to previous track

Used output format : User Defined Encoder
Selected bitrate : 1024 kBit/s
Quality : High
Add ID3 tag : No
Command line compressor : C:Program FilesFLACflac.exe
Additional command line options : -8 -V -T "Genre=%genre%" -T "Artist=%artist%" -T "Title=%title%" -T "Album=%albumtitle%" -T "Date=%year%" -T "Tracknumber=%tracknr%" %source%

TOC of the extracted CD

Track | Start | Length | Start sector | End sector
––––––––––––––––––––––––––––-
1 | 0:00.00 | 9:39.00 | 0 | 43424
2 | 9:39.00 | 9:59.52 | 43425 | 88401
3 | 19:38.52 | 6:28.23 | 88402 | 117524
4 | 26:07.00 | 7:16.00 | 117525 | 150224
5 | 33:23.00 | 1:32.00 | 150225 | 157124
6 | 34:55.00 | 2:12.00 | 157125 | 167024
7 | 37:07.00 | 2:10.00 | 167025 | 176774
8 | 39:17.00 | 2:09.00 | 176775 | 186449
9 | 41:26.00 | 13:55.32 | 186450 | 249106
10 | 55:21.32 | 7:21.30 | 249107 | 282211
11 | 62:42.62 | 5:06.13 | 282212 | 305174

Track 1

Filename C:MusicJ.Brahms. Complete Piano Music. M.JonesCD 31 Theme and Variations in D minor (fr. String Sextet Op. 180).wav

Pre-gap length 0:00:02.00

Peak level 32.4 %
Extraction speed 4.0 X
Track quality 99.9 %
Test CRC 4DFD3613
Copy CRC 4DFD3613
Accurately ripped (confidence 7) [1D1CAC39] (AR v2)
Copy OK

Track 2

Filename C:MusicJ.Brahms. Complete Piano Music. M.JonesCD 32 Theme and Variations on an Original Theme Op. 21, No. 1 1-7.wav

Peak level 33.8 %
Extraction speed 5.3 X
Track quality 100.0 %
Test CRC FD5DC17D
Copy CRC FD5DC17D
Accurately ripped (confidence 7) [97DAC2B7] (AR v2)
Copy OK

Track 3

Filename C:MusicJ.Brahms. Complete Piano Music. M.JonesCD 33 Theme and Variations on an Original Theme Op. 21, No. 1 8-11.wav

Peak level 74.0 %
Extraction speed 5.8 X
Track quality 100.0 %
Test CRC 6BF46BEA
Copy CRC 6BF46BEA
Accurately ripped (confidence 7) [C599B152] (AR v2)
Copy OK

Track 4

Filename C:MusicJ.Brahms. Complete Piano Music. M.JonesCD 34 Theme and Variations 1-13 on a Hungarian Song Op. 21, No. 2.wav

Peak level 49.5 %
Extraction speed 6.2 X
Track quality 100.0 %
Test CRC 0C852F5F
Copy CRC 0C852F5F
Accurately ripped (confidence 7) [8D51A7BF] (AR v2)
Copy OK

Track 5

Filename C:MusicJ.Brahms. Complete Piano Music. M.JonesCD 35 Sarabande in A.wav

Peak level 25.2 %
Extraction speed 4.9 X
Track quality 100.0 %
Test CRC 1C4287F0
Copy CRC 1C4287F0
Accurately ripped (confidence 7) [0AD1C114] (AR v2)
Copy OK

Track 6

Filename C:MusicJ.Brahms. Complete Piano Music. M.JonesCD 36 Gigue in A minor.wav

Peak level 40.9 %
Extraction speed 5.4 X
Track quality 100.0 %
Test CRC 1F9447EA
Copy CRC 1F9447EA
Accurately ripped (confidence 7) [42BACA9A] (AR v2)
Copy OK

Track 7

Filename C:MusicJ.Brahms. Complete Piano Music. M.JonesCD 37 Sarabande in B minor.wav

Peak level 29.6 %
Extraction speed 5.7 X
Track quality 100.0 %
Test CRC EEB41E28
Copy CRC EEB41E28
Accurately ripped (confidence 7) [6B560398] (AR v2)
Copy OK

Track 8

Filename C:MusicJ.Brahms. Complete Piano Music. M.JonesCD 38 Gigue in B minor.wav

Peak level 39.4 %
Extraction speed 5.5 X
Track quality 100.0 %
Test CRC B838D79B
Copy CRC B838D79B
Accurately ripped (confidence 7) [76510698] (AR v2)
Copy OK

Track 9

Filename C:MusicJ.Brahms. Complete Piano Music. M.JonesCD 39 Variations and Fugue on a Theme of Handel, Op. 24 Aria and Variations 1-15.wav

Peak level 40.9 %
Extraction speed 7.4 X
Track quality 100.0 %
Test CRC 5B51A64B
Copy CRC 5B51A64B
Accurately ripped (confidence 7) [4F9D2D42] (AR v2)
Copy OK

Track 10

Filename C:MusicJ.Brahms. Complete Piano Music. M.JonesCD 310 Variations and Fugue on a Theme of Handel, Op. 24 Variations 16-25.wav

Peak level 36.1 %
Extraction speed 7.5 X
Track quality 100.0 %
Test CRC 41CB7DE3
Copy CRC 41CB7DE3
Accurately ripped (confidence 7) [8C117121] (AR v2)
Copy OK

Track 11

Filename C:MusicJ.Brahms. Complete Piano Music. M.JonesCD 311 Variations and Fugue on a Theme of Handel, Op. 24 Fugue.wav

Peak level 41.5 %
Extraction speed 7.4 X
Track quality 100.0 %
Test CRC 5D3709CE
Copy CRC 5D3709CE
Accurately ripped (confidence 7) [55C44973] (AR v2)
Copy OK

All tracks accurately ripped

No errors occurred

End of status report

–– CUETools DB Plugin V2.1.4

[CTDB TOCID: eUkQm8m7QD0ZM7eW5PUgUGoR7Vk-] found
Submit result: eUkQm8m7QD0ZM7eW5PUgUGoR7Vk- has been confirmed
Track | CTDB Status
1 | (13/16) Accurately ripped
2 | (13/16) Accurately ripped
3 | (13/16) Accurately ripped
4 | (13/16) Accurately ripped
5 | (13/16) Accurately ripped
6 | (13/16) Accurately ripped
7 | (13/16) Accurately ripped
8 | (13/16) Accurately ripped
9 | (13/16) Accurately ripped
10 | (13/16) Accurately ripped
11 | (13/16) Accurately ripped

==== Log checksum 710BAEDE408F4390596B18A54CA9DF8A578ECD4AB1A61BA5B9E354FDD8F18067 ====

EAC CD4
Exact Audio Copy V1.0 beta 3 from 29. August 2011

EAC extraction logfile from 27. May 2012, 0:07

Martin Jones / Brahms – Complete Piano Music (Disc Four)

Used drive : PIONEER DVD-RW DVR-111D Adapter: 1 ID: 1

Read mode : Secure
Utilize accurate stream : Yes
Defeat audio cache : Yes
Make use of C2 pointers : No

Read offset correction : 48
Overread into Lead-In and Lead-Out : No
Fill up missing offset samples with silence : Yes
Delete leading and trailing silent blocks : No
Null samples used in CRC calculations : Yes
Used interface : Native Win32 interface for Win NT & 2000
Gap handling : Appended to previous track

Used output format : User Defined Encoder
Selected bitrate : 1024 kBit/s
Quality : High
Add ID3 tag : No
Command line compressor : C:Program FilesFLACflac.exe
Additional command line options : -8 -V -T "Genre=%genre%" -T "Artist=%artist%" -T "Title=%title%" -T "Album=%albumtitle%" -T "Date=%year%" -T "Tracknumber=%tracknr%" %source%

TOC of the extracted CD

Track | Start | Length | Start sector | End sector
––––––––––––––––––––––––––––-
1 | 0:00.00 | 12:12.00 | 0 | 54899
2 | 12:12.00 | 10:33.00 | 54900 | 102374
3 | 22:45.00 | 10:50.37 | 102375 | 151161
4 | 33:35.37 | 11:27.38 | 151162 | 202724
5 | 45:03.00 | 3:08.00 | 202725 | 216824
6 | 48:11.00 | 3:01.00 | 216825 | 230399
7 | 51:12.00 | 2:28.00 | 230400 | 241499
8 | 53:40.00 | 4:32.00 | 241500 | 261899
9 | 58:12.00 | 2:21.00 | 261900 | 272474
10 | 60:33.00 | 3:14.00 | 272475 | 287024
11 | 63:47.00 | 1:40.00 | 287025 | 294524
12 | 65:27.00 | 2:47.00 | 294525 | 307049
13 | 68:14.00 | 1:56.00 | 307050 | 315749
14 | 70:10.00 | 2:14.00 | 315750 | 325799
15 | 72:24.00 | 3:02.00 | 325800 | 339449

Track 1

Filename C:MusicJ.Brahms. Complete Piano Music. M.JonesCD 41 Variations on a Theme of Paganini, Op. 35, Book 1.wav

Pre-gap length 0:00:02.00

Peak level 65.7 %
Extraction speed 3.9 X
Track quality 100.0 %
Test CRC 8470D0D9
Copy CRC 8470D0D9
Accurately ripped (confidence 3) [21B5083A] (AR v2)
Copy OK

Track 2

Filename C:MusicJ.Brahms. Complete Piano Music. M.JonesCD 42 Variations on a Theme of Paganini, Op. 35, Book 2.wav

Peak level 64.5 %
Extraction speed 4.7 X
Track quality 100.0 %
Test CRC 07099442
Copy CRC 07099442
Accurately ripped (confidence 3) [39E0A592] (AR v2)
Copy OK

Track 3

Filename C:MusicJ.Brahms. Complete Piano Music. M.JonesCD 43 16 Waltzes, Op. 39 – Nos. 1-8.wav

Peak level 46.5 %
Extraction speed 4.2 X
Track quality 100.0 %
Test CRC F7214917
Copy CRC F7214917
Accurately ripped (confidence 3) [1C66A669] (AR v2)
Copy OK

Track 4

Filename C:MusicJ.Brahms. Complete Piano Music. M.JonesCD 44 16 Waltzes, Op. 39 – Nos. 9-16.wav

Peak level 53.7 %
Extraction speed 6.3 X
Track quality 100.0 %
Test CRC 3108E1F9
Copy CRC 3108E1F9
Accurately ripped (confidence 3) [86F0A5A2] (AR v2)
Copy OK

Track 5

Filename C:MusicJ.Brahms. Complete Piano Music. M.JonesCD 45 Hungarian Dances – 1. Allegro.wav

Peak level 51.5 %
Extraction speed 5.4 X
Track quality 100.0 %
Test CRC 38CB36CD
Copy CRC 38CB36CD
Accurately ripped (confidence 3) [1CADA269] (AR v2)
Copy OK

Track 6

Filename C:MusicJ.Brahms. Complete Piano Music. M.JonesCD 46 Hungarian Dances – 2. Allegro non assai.wav

Peak level 55.1 %
Extraction speed 5.9 X
Track quality 100.0 %
Test CRC 0E043E13
Copy CRC 0E043E13
Accurately ripped (confidence 3) [E09423E2] (AR v2)
Copy OK

Track 7

Filename C:MusicJ.Brahms. Complete Piano Music. M.JonesCD 47 Hungarian Dances – 3. Allegretto.wav

Peak level 56.8 %
Extraction speed 5.8 X
Track quality 100.0 %
Test CRC DF170685
Copy CRC DF170685
Accurately ripped (confidence 3) [A440C63A] (AR v2)
Copy OK

Track 8

Filename C:MusicJ.Brahms. Complete Piano Music. M.JonesCD 48 Hungarian Dances – 4. Poco Sostenuto.wav

Peak level 50.1 %
Extraction speed 6.7 X
Track quality 100.0 %
Test CRC ED15DDF7
Copy CRC ED15DDF7
Accurately ripped (confidence 3) [F14D5AB6] (AR v2)
Copy OK

Track 9

Filename C:MusicJ.Brahms. Complete Piano Music. M.JonesCD 49 Hungarian Dances – 5. Allegro.wav

Peak level 60.6 %
Extraction speed 5.8 X
Track quality 100.0 %
Test CRC 9A72CBDD
Copy CRC 9A72CBDD
Accurately ripped (confidence 3) [8A083821] (AR v2)
Copy OK

Track 10

Filename C:MusicJ.Brahms. Complete Piano Music. M.JonesCD 410 Hungarian Dances – 6. Vivace.wav

Peak level 67.4 %
Extraction speed 6.4 X
Track quality 100.0 %
Test CRC D460C0A6
Copy CRC D460C0A6
Accurately ripped (confidence 3) [C91AD830] (AR v2)
Copy OK

Track 11

Filename C:MusicJ.Brahms. Complete Piano Music. M.JonesCD 411 Hungarian Dances – 7. Allegretto.wav

Peak level 48.7 %
Extraction speed 5.5 X
Track quality 100.0 %
Test CRC 615025DB
Copy CRC 615025DB
Accurately ripped (confidence 3) [A1D365D7] (AR v2)
Copy OK

Track 12

Filename C:MusicJ.Brahms. Complete Piano Music. M.JonesCD 412 Hungarian Dances – 8. Presto.wav

Peak level 62.1 %
Extraction speed 5.5 X
Track quality 99.9 %
Test CRC B302F2FE
Copy CRC B302F2FE
Accurately ripped (confidence 3) [2548D775] (AR v2)
Copy OK

Track 13

Filename C:MusicJ.Brahms. Complete Piano Music. M.JonesCD 413 Hungarian Dances – 9. Allegro.wav

Peak level 47.8 %
Extraction speed 6.0 X
Track quality 100.0 %
Test CRC C9014707
Copy CRC C9014707
Accurately ripped (confidence 3) [AEB9EEA3] (AR v2)
Copy OK

Track 14

Filename C:MusicJ.Brahms. Complete Piano Music. M.JonesCD 414 Hungarian Dances – 10. Presto.wav

Peak level 49.5 %
Extraction speed 6.4 X
Track quality 100.0 %
Test CRC 5608496E
Copy CRC 5608496E
Accurately ripped (confidence 3) [104B9F50] (AR v2)
Copy OK

Track 15

Filename C:MusicJ.Brahms. Complete Piano Music. M.JonesCD 415 Gavotte by Gluck (arranged for piano).wav

Peak level 23.6 %
Extraction speed 6.8 X
Track quality 100.0 %
Test CRC 02AF4108
Copy CRC 02AF4108
Accurately ripped (confidence 3) [F4798BB9] (AR v2)
Copy OK

All tracks accurately ripped

No errors occurred

End of status report

–– CUETools DB Plugin V2.1.4

[CTDB TOCID: 2Jnb5QlACRBn9kwweUuWxu7CWNc-] found
Submit result: 2Jnb5QlACRBn9kwweUuWxu7CWNc- has been confirmed
Track | CTDB Status
1 | (12/12) Accurately ripped
2 | (12/12) Accurately ripped
3 | (12/12) Accurately ripped
4 | (12/12) Accurately ripped
5 | (12/12) Accurately ripped
6 | (12/12) Accurately ripped
7 | (12/12) Accurately ripped
8 | (12/12) Accurately ripped
9 | (12/12) Accurately ripped
10 | (12/12) Accurately ripped
11 | (12/12) Accurately ripped
12 | (12/12) Accurately ripped
13 | (12/12) Accurately ripped
14 | (12/12) Accurately ripped
15 | (12/12) Accurately ripped

==== Log checksum 5BA844CB6EE08E338EC5381002DB55A4E3628A00F21C82508D495F0FAEB5A533 ====

EAC CD5
Exact Audio Copy V1.0 beta 3 from 29. August 2011

EAC extraction logfile from 27. May 2012, 2:08

Martin Jones / Brahms – Complete Piano Music (Disc Five)

Used drive : PIONEER DVD-RW DVR-111D Adapter: 1 ID: 1

Read mode : Secure
Utilize accurate stream : Yes
Defeat audio cache : Yes
Make use of C2 pointers : No

Read offset correction : 48
Overread into Lead-In and Lead-Out : No
Fill up missing offset samples with silence : Yes
Delete leading and trailing silent blocks : No
Null samples used in CRC calculations : Yes
Used interface : Native Win32 interface for Win NT & 2000
Gap handling : Appended to previous track

Used output format : User Defined Encoder
Selected bitrate : 1024 kBit/s
Quality : High
Add ID3 tag : No
Command line compressor : C:Program FilesFLACflac.exe
Additional command line options : -8 -V -T "Genre=%genre%" -T "Artist=%artist%" -T "Title=%title%" -T "Album=%albumtitle%" -T "Date=%year%" -T "Tracknumber=%tracknr%" %source%

TOC of the extracted CD

Track | Start | Length | Start sector | End sector
––––––––––––––––––––––––––––-
1 | 0:00.00 | 3:43.00 | 0 | 16724
2 | 3:43.00 | 3:31.00 | 16725 | 32549
3 | 7:14.00 | 2:50.00 | 32550 | 45299
4 | 10:04.00 | 2:10.00 | 45300 | 55049
5 | 12:14.00 | 3:15.00 | 55050 | 69674
6 | 15:29.00 | 4:23.00 | 69675 | 89399
7 | 19:52.00 | 2:44.00 | 89400 | 101699
8 | 22:36.00 | 3:37.00 | 101700 | 117974
9 | 26:13.00 | 9:24.00 | 117975 | 160274
10 | 35:37.00 | 6:20.00 | 160275 | 188774
11 | 41:57.00 | 15:24.00 | 188775 | 258074
12 | 57:21.00 | 3:33.00 | 258075 | 274049
13 | 60:54.00 | 5:04.00 | 274050 | 296849
14 | 65:58.00 | 0:34.00 | 296850 | 299399
15 | 66:32.00 | 0:40.00 | 299400 | 302399
16 | 67:12.00 | 3:44.00 | 302400 | 319199
17 | 70:56.00 | 1:09.00 | 319200 | 324374

Track 1

Filename C:MusicJ.Brahms. Complete Piano Music. M.JonesCD 51 8 Klavierstuecke Op. 76 – 1. Capriccio – Un poco agitato.wav

Pre-gap length 0:00:02.00

Peak level 45.8 %
Extraction speed 3.7 X
Track quality 100.0 %
Test CRC D3204983
Copy CRC D3204983
Accurately ripped (confidence 7) [5A5779CD] (AR v2)
Copy OK

Track 2

Filename C:MusicJ.Brahms. Complete Piano Music. M.JonesCD 52 8 Klavierstuecke Op. 76 – 2. Capriccio – Allegretto non troppo.wav

Peak level 34.5 %
Extraction speed 4.0 X
Track quality 100.0 %
Test CRC EF06954D
Copy CRC EF06954D
Accurately ripped (confidence 7) [B12B9C47] (AR v2)
Copy OK

Track 3

Filename C:MusicJ.Brahms. Complete Piano Music. M.JonesCD 53 8 Klavierstuecke Op. 76 – 3. Intermezzo – Grazioso.wav

Peak level 20.7 %
Extraction speed 3.5 X
Track quality 99.9 %
Test CRC 7E1AF49B
Copy CRC 7E1AF49B
Accurately ripped (confidence 7) [593ED270] (AR v2)
Copy OK

Track 4

Filename C:MusicJ.Brahms. Complete Piano Music. M.JonesCD 54 8 Klavierstuecke Op. 76 – 4. Intermezzo – Allegretto grazioso.wav

Peak level 18.7 %
Extraction speed 3.9 X
Track quality 100.0 %
Test CRC 2C38AD80
Copy CRC 2C38AD80
Accurately ripped (confidence 7) [34BB1CA8] (AR v2)
Copy OK

Track 5

Filename C:MusicJ.Brahms. Complete Piano Music. M.JonesCD 55 8 Klavierstuecke Op. 76 – 5. Capriccio – Agitato.wav

Peak level 48.5 %
Extraction speed 4.3 X
Track quality 100.0 %
Test CRC 89A4676A
Copy CRC 89A4676A
Accurately ripped (confidence 7) [209E55EF] (AR v2)
Copy OK

Track 6

Filename C:MusicJ.Brahms. Complete Piano Music. M.JonesCD 56 8 Klavierstuecke Op. 76 – 6. Intermezzo – Andante con moto.wav

Peak level 27.9 %
Extraction speed 4.9 X
Track quality 100.0 %
Test CRC FD285E86
Copy CRC FD285E86
Accurately ripped (confidence 7) [F314ED31] (AR v2)
Copy OK

Track 7

Filename C:MusicJ.Brahms. Complete Piano Music. M.JonesCD 57 8 Klavierstuecke Op. 76 – 7. Intermezzo – Moderato semplice.wav

Peak level 26.9 %
Extraction speed 4.0 X
Track quality 99.9 %
Test CRC 1EC3A934
Copy CRC 1EC3A934
Accurately ripped (confidence 7) [F6441FA5] (AR v2)
Copy OK

Track 8

Filename C:MusicJ.Brahms. Complete Piano Music. M.JonesCD 58 8 Klavierstuecke Op. 76 – 8. Capriccio – Grazioso + poco vivace.wav

Peak level 47.6 %
Extraction speed 5.1 X
Track quality 100.0 %
Test CRC DAAD8C3E
Copy CRC DAAD8C3E
Accurately ripped (confidence 7) [ADA62FD9] (AR v2)
Copy OK

Track 9

Filename C:MusicJ.Brahms. Complete Piano Music. M.JonesCD 59 Two Rhapsodies, Op. 79 – 1. Agitato.wav

Peak level 68.5 %
Extraction speed 6.0 X
Track quality 100.0 %
Test CRC 2D9BFF15
Copy CRC 2D9BFF15
Accurately ripped (confidence 7) [AF73C53A] (AR v2)
Copy OK

Track 10

Filename C:MusicJ.Brahms. Complete Piano Music. M.JonesCD 510 Two Rhapsodies, Op. 79 – 2. Molto passionato.wav

Peak level 68.6 %
Extraction speed 6.2 X
Track quality 100.0 %
Test CRC AA440F30
Copy CRC AA440F30
Accurately ripped (confidence 7) [B54DBB4D] (AR v2)
Copy OK

Track 11

Filename C:MusicJ.Brahms. Complete Piano Music. M.JonesCD 511 Study No. 5 (Chaconne by J. S. Bach).wav

Peak level 37.4 %
Extraction speed 3.7 X
Track quality 100.0 %
Test CRC 6013FF05
Copy CRC 6013FF05
Accurately ripped (confidence 7) [C7E2D87C] (AR v2)
Copy OK

Track 12

Filename C:MusicJ.Brahms. Complete Piano Music. M.JonesCD 512 Study No. 3 (Presto after J. S. Bach, version 1).wav

Peak level 45.7 %
Extraction speed 2.1 X
Track quality 100.0 %
Test CRC 6DDF6018
Copy CRC 6DDF6018
Accurately ripped (confidence 7) [40C86ABD] (AR v2)
Copy OK

Track 13

Filename C:MusicJ.Brahms. Complete Piano Music. M.JonesCD 513 Sarabande and two Gavottes.wav

Peak level 31.2 %
Extraction speed 2.3 X
Track quality 100.0 %
Test CRC D9A90710
Copy CRC D9A90710
Accurately ripped (confidence 7) [371D81C9] (AR v2)
Copy OK

Track 14

Filename C:MusicJ.Brahms. Complete Piano Music. M.JonesCD 514 Kanon.wav

Peak level 29.2 %
Extraction speed 1.2 X
Track quality 100.0 %
Test CRC A23DBB08
Copy CRC A23DBB08
Accurately ripped (confidence 7) [36894EAF] (AR v2)
Copy OK

Track 15

Filename C:MusicJ.Brahms. Complete Piano Music. M.JonesCD 515 Kanon (inverted).wav

Peak level 29.5 %
Extraction speed 1.3 X
Track quality 100.0 %
Test CRC EF30A587
Copy CRC EF30A587
Accurately ripped (confidence 7) [FF6131AD] (AR v2)
Copy OK

Track 16

Filename C:MusicJ.Brahms. Complete Piano Music. M.JonesCD 516 Study No. 4 (Presto after J. S. Bach, version 2).wav

Peak level 41.5 %
Extraction speed 2.2 X
Track quality 100.0 %
Test CRC D117B828
Copy CRC D117B828
Accurately ripped (confidence 7) [F8D3A53C] (AR v2)
Copy OK

Track 17

Filename C:MusicJ.Brahms. Complete Piano Music. M.JonesCD 517 Kleine Klavierstuecke.wav

Peak level 47.8 %
Extraction speed 1.7 X
Track quality 100.0 %
Test CRC 4ED4CA8D
Copy CRC 4ED4CA8D
Accurately ripped (confidence 7) [F68B909F] (AR v2)
Copy OK

All tracks accurately ripped

No errors occurred

End of status report

–– CUETools DB Plugin V2.1.4

[CTDB TOCID: u6AbKYN8rHyZxkmH0arBW6GOboY-] found
Submit result: already submitted
Track | CTDB Status
1 | (13/13) Accurately ripped
2 | (13/13) Accurately ripped
3 | (13/13) Accurately ripped
4 | (13/13) Accurately ripped
5 | (13/13) Accurately ripped
6 | (13/13) Accurately ripped
7 | (13/13) Accurately ripped
8 | (13/13) Accurately ripped
9 | (13/13) Accurately ripped
10 | (13/13) Accurately ripped
11 | (13/13) Accurately ripped
12 | (13/13) Accurately ripped
13 | (13/13) Accurately ripped
14 | (13/13) Accurately ripped
15 | (13/13) Accurately ripped
16 | (13/13) Accurately ripped
17 | (13/13) Accurately ripped

==== Log checksum 8B9CAB7A2993CC8CAB1EDE2C16963BE1D0C21E8803BB35AF53D7F3710F2513D1 ====

EAC CD6
Exact Audio Copy V1.0 beta 3 from 29. August 2011

EAC extraction logfile from 27. May 2012, 3:35

Martin Jones / Brahms – Complete Piano Music (Disc Six)

Used drive : PIONEER DVD-RW DVR-111D Adapter: 1 ID: 1

Read mode : Secure
Utilize accurate stream : Yes
Defeat audio cache : Yes
Make use of C2 pointers : No

Read offset correction : 48
Overread into Lead-In and Lead-Out : No
Fill up missing offset samples with silence : Yes
Delete leading and trailing silent blocks : No
Null samples used in CRC calculations : Yes
Used interface : Native Win32 interface for Win NT & 2000
Gap handling : Appended to previous track

Used output format : User Defined Encoder
Selected bitrate : 1024 kBit/s
Quality : High
Add ID3 tag : No
Command line compressor : C:Program FilesFLACflac.exe
Additional command line options : -8 -V -T "Genre=%genre%" -T "Artist=%artist%" -T "Title=%title%" -T "Album=%albumtitle%" -T "Date=%year%" -T "Tracknumber=%tracknr%" %source%

TOC of the extracted CD

Track | Start | Length | Start sector | End sector
––––––––––––––––––––––––––––-
1 | 0:00.00 | 2:12.00 | 0 | 9899
2 | 2:12.00 | 3:26.00 | 9900 | 25349
3 | 5:38.00 | 3:14.00 | 25350 | 39899
4 | 8:52.00 | 4:18.00 | 39900 | 59249
5 | 13:10.00 | 3:36.00 | 59250 | 75449
6 | 16:46.00 | 3:00.00 | 75450 | 88949
7 | 19:46.00 | 2:23.00 | 88950 | 99674
8 | 22:09.00 | 5:11.00 | 99675 | 122999
9 | 27:20.00 | 3:47.00 | 123000 | 140024
10 | 31:07.00 | 4:51.00 | 140025 | 161849
11 | 35:58.00 | 1:54.00 | 161850 | 170399
12 | 37:52.00 | 5:53.00 | 170400 | 196874
13 | 43:45.00 | 3:36.00 | 196875 | 213074
14 | 47:21.00 | 2:34.00 | 213075 | 224624
15 | 49:55.00 | 3:28.00 | 224625 | 240224
16 | 53:23.00 | 4:49.00 | 240225 | 261899
17 | 58:12.00 | 3:57.00 | 261900 | 279674
18 | 62:09.00 | 4:31.00 | 279675 | 299999
19 | 66:40.00 | 1:41.00 | 300000 | 307574
20 | 68:21.00 | 5:23.00 | 307575 | 331799

Track 1

Filename C:MusicJ.Brahms. Complete Piano Music. M.JonesCD 61 Fantasies Op. 116 – 1. Capriccio.wav

Pre-gap length 0:00:02.00

Peak level 55.1 %
Extraction speed 3.3 X
Track quality 100.0 %
Test CRC D18CD339
Copy CRC D18CD339
Accurately ripped (confidence 8) [F2633A99] (AR v2)
Copy OK

Track 2

Filename C:MusicJ.Brahms. Complete Piano Music. M.JonesCD 62 Fantasies Op. 116 – 2. Intermezzo.wav

Peak level 32.9 %
Extraction speed 3.8 X
Track quality 100.0 %
Test CRC 63B585AF
Copy CRC 63B585AF
Accurately ripped (confidence 8) [50EE7E38] (AR v2)
Copy OK

Track 3

Filename C:MusicJ.Brahms. Complete Piano Music. M.JonesCD 63 Fantasies Op. 116 – 3. Capriccio.wav

Peak level 57.8 %
Extraction speed 4.0 X
Track quality 100.0 %
Test CRC 7F772487
Copy CRC 7F772487
Accurately ripped (confidence 8) [800EC0A5] (AR v2)
Copy OK

Track 4

Filename C:MusicJ.Brahms. Complete Piano Music. M.JonesCD 64 Fantasies Op. 116 – 4. Intermezzo.wav

Peak level 21.1 %
Extraction speed 4.4 X
Track quality 100.0 %
Test CRC 1BC88D2C
Copy CRC 1BC88D2C
Accurately ripped (confidence 8) [C284C766] (AR v2)
Copy OK

Track 5

Filename C:MusicJ.Brahms. Complete Piano Music. M.JonesCD 65 Fantasies Op. 116 – 5. Intermezzo.wav

Peak level 18.9 %
Extraction speed 4.4 X
Track quality 100.0 %
Test CRC 1B4C6F72
Copy CRC 1B4C6F72
Accurately ripped (confidence 8) [0B1F5CF4] (AR v2)
Copy OK

Track 6

Filename C:MusicJ.Brahms. Complete Piano Music. M.JonesCD 66 Fantasies Op. 116 – 6. Intermezzo.wav

Peak level 28.8 %
Extraction speed 4.7 X
Track quality 100.0 %
Test CRC 10AAB5A5
Copy CRC 10AAB5A5
Accurately ripped (confidence 8) [3AF1E3DE] (AR v2)
Copy OK

Track 7

Filename C:MusicJ.Brahms. Complete Piano Music. M.JonesCD 67 Fantasies Op. 116 – 7. Capriccio.wav

Peak level 52.4 %
Extraction speed 4.6 X
Track quality 100.0 %
Test CRC 35694507
Copy CRC 35694507
Accurately ripped (confidence 8) [78592AE6] (AR v2)
Copy OK

Track 8

Filename C:MusicJ.Brahms. Complete Piano Music. M.JonesCD 68 Klavierstuecke, Op. 117 – 1. Intermezzo.wav

Peak level 18.9 %
Extraction speed 5.4 X
Track quality 100.0 %
Test CRC 6EFE9C84
Copy CRC 6EFE9C84
Accurately ripped (confidence 8) [2813F2D9] (AR v2)
Copy OK

Track 9

Filename C:MusicJ.Brahms. Complete Piano Music. M.JonesCD 69 Klavierstuecke, Op. 117 – 2. Intermezzo.wav

Peak level 35.3 %
Extraction speed 5.3 X
Track quality 100.0 %
Test CRC 500E8A9E
Copy CRC 500E8A9E
Accurately ripped (confidence 8) [3EF1FD50] (AR v2)
Copy OK

Track 10

Filename C:MusicJ.Brahms. Complete Piano Music. M.JonesCD 610 Klavierstuecke, Op. 117 – 3. Intermezzo.wav

Peak level 35.8 %
Extraction speed 5.9 X
Track quality 100.0 %
Test CRC E5202F1A
Copy CRC E5202F1A
Accurately ripped (confidence 8) [329AC672] (AR v2)
Copy OK

Track 11

Filename C:MusicJ.Brahms. Complete Piano Music. M.JonesCD 611 Klavierstuecke, Op. 118 – 1. Intermezzo.wav

Peak level 48.3 %
Extraction speed 4.9 X
Track quality 100.0 %
Test CRC DA26EF65
Copy CRC DA26EF65
Accurately ripped (confidence 8) [3EABC638] (AR v2)
Copy OK

Track 12

Filename C:MusicJ.Brahms. Complete Piano Music. M.JonesCD 612 Klavierstuecke, Op. 118 – 2. Intermezzo.wav

Peak level 32.0 %
Extraction speed 5.9 X
Track quality 100.0 %
Test CRC 1D04BEEC
Copy CRC 1D04BEEC
Accurately ripped (confidence 8) [DB5BE73C] (AR v2)
Copy OK

Track 13

Filename C:MusicJ.Brahms. Complete Piano Music. M.JonesCD 613 Klavierstuecke, Op. 118 – 3. Ballade.wav

Peak level 51.9 %
Extraction speed 6.0 X
Track quality 100.0 %
Test CRC 5E10EA32
Copy CRC 5E10EA32
Accurately ripped (confidence 8) [38B2CC6E] (AR v2)
Copy OK

Track 14

Filename C:MusicJ.Brahms. Complete Piano Music. M.JonesCD 614 Klavierstuecke, Op. 118 – 4. Intermezzo.wav

Peak level 42.5 %
Extraction speed 5.0 X
Track quality 99.9 %
Test CRC 69CEF11C
Copy CRC 69CEF11C
Accurately ripped (confidence 8) [5244F095] (AR v2)
Copy OK

Track 15

Filename C:MusicJ.Brahms. Complete Piano Music. M.JonesCD 615 Klavierstuecke, Op. 118 – 5. Romanze.wav

Peak level 26.6 %
Extraction speed 6.3 X
Track quality 100.0 %
Test CRC 79640D5D
Copy CRC 79640D5D
Accurately ripped (confidence 8) [1CEA87AB] (AR v2)
Copy OK

Track 16

Filename C:MusicJ.Brahms. Complete Piano Music. M.JonesCD 616 Klavierstuecke, Op. 118 – 6. Intermezzo.wav

Peak level 62.2 %
Extraction speed 6.7 X
Track quality 100.0 %
Test CRC CE2B6987
Copy CRC CE2B6987
Accurately ripped (confidence 8) [B2482B05] (AR v2)
Copy OK

Track 17

Filename C:MusicJ.Brahms. Complete Piano Music. M.JonesCD 617 Klavierstuecke, Op. 119 – 1. Intermezzo.wav

Peak level 24.3 %
Extraction speed 6.8 X
Track quality 100.0 %
Test CRC 86D86FC2
Copy CRC 86D86FC2
Accurately ripped (confidence 8) [9A8CEF1F] (AR v2)
Copy OK

Track 18

Filename C:MusicJ.Brahms. Complete Piano Music. M.JonesCD 618 Klavierstuecke, Op. 119 – 2. Intermezzo.wav

Peak level 45.8 %
Extraction speed 6.9 X
Track quality 100.0 %
Test CRC 8543DFEA
Copy CRC 8543DFEA
Accurately ripped (confidence 8) [DBB68862] (AR v2)
Copy OK

Track 19

Filename C:MusicJ.Brahms. Complete Piano Music. M.JonesCD 619 Klavierstuecke, Op. 119 – 3. Intermezzo.wav

Peak level 46.5 %
Extraction speed 5.4 X
Track quality 100.0 %
Test CRC E715187C
Copy CRC E715187C
Accurately ripped (confidence 8) [A7F4AF68] (AR v2)
Copy OK

Track 20

Filename C:MusicJ.Brahms. Complete Piano Music. M.JonesCD 620 Klavierstuecke, Op. 119 – 4. Rhapsodie.wav

Peak level 70.8 %
Extraction speed 6.8 X
Track quality 100.0 %
Test CRC FE9E95D3
Copy CRC FE9E95D3
Accurately ripped (confidence 8) [AF56E7F3] (AR v2)
Copy OK

All tracks accurately ripped

No errors occurred

End of status report

–– CUETools DB Plugin V2.1.4

[CTDB TOCID: XEROwYPR0_XUpxd_xQqvq.oeQYc-] found
Submit result: XEROwYPR0_XUpxd_xQqvq.oeQYc- has been confirmed
Track | CTDB Status
1 | (11/11) Accurately ripped
2 | (11/11) Accurately ripped
3 | (11/11) Accurately ripped
4 | (11/11) Accurately ripped
5 | (11/11) Accurately ripped
6 | (11/11) Accurately ripped
7 | (11/11) Accurately ripped
8 | (11/11) Accurately ripped
9 | (11/11) Accurately ripped
10 | (11/11) Accurately ripped
11 | (11/11) Accurately ripped
12 | (11/11) Accurately ripped
13 | (11/11) Accurately ripped
14 | (11/11) Accurately ripped
15 | (11/11) Accurately ripped
16 | (11/11) Accurately ripped
17 | (11/11) Accurately ripped
18 | (11/11) Accurately ripped
19 | (11/11) Accurately ripped
20 | (11/11) Accurately ripped

==== Log checksum BFBD3797728FD6964EF776784C0FC07394B127D44C9F679314EB6EDB29E69B75 ====

Martin Jones - Brahms: Complete Piano Music (1992)

Thanks to the Original ripper metachrom !

Martin Jones – Brahms: Complete Piano Music (1992) Download, Warez, DDL, Free, Full Album, Torrent, Legal.

Download