Martin Herterich – Estonia (2009)

Download
Martin Herterich - Estonia (2009)

Martin Herterich – Estonia (2009)
EAC Rip | FLAC (image+.cue+log) – 147 MB | MP3 CBR 320 kbps (LAME 3.93) – 72 MB | Covers (12 MB) included
Genre: Ambient, Modern Classical | RAR 3% Rec. | Label: Under The Spire (spire 015), CDr

Martin Herterich is a drone ambient and minimalism music sound artist and composer born 1985 in Budapest, Hungary, now based in Stockholm, Sweden. Being active since 2003, he has released tapes and CDs on labels such as iDEAL Recordings, Fang Bomb and Under the Spire. Working with ancient reel-to-reel tape recorders and primitive recording equipment, Herterich shapes melancholy piano compositions in a carefully sculpted web of hiss and echo.

Tracklist:
01. Staring Across An Empty Room
02. Estonia Part 1-2
03. Kyrie (For A. Pärt)

Total time: 25:17

EAC log
Exact Audio Copy V0.99 prebeta 5 from 4. May 2009

EAC extraction logfile from 16. December 2010, 13:52

Martin Herterich / Estonia

Used drive : Optiarc DVD RW AD-5260S Adapter: 1 ID: 1

Read mode : Secure
Utilize accurate stream : Yes
Defeat audio cache : Yes
Make use of C2 pointers : No

Read offset correction : 48
Overread into Lead-In and Lead-Out : No
Fill up missing offset samples with silence : Yes
Delete leading and trailing silent blocks : No
Null samples used in CRC calculations : Yes
Used interface : Installed external ASPI interface

Used output format : User Defined Encoder
Selected bitrate : 256 kBit/s
Quality : High
Add ID3 tag : No
Command line compressor : C:Program FilesFLACflac.exe
Additional command line options : -8 -V %s

TOC of the extracted CD

Track | Start | Length | Start sector | End sector
––––––––––––––––––––––––––––-
1 | 0:00.00 | 4:49.00 | 0 | 21674
2 | 4:49.00 | 13:23.66 | 21675 | 81965
3 | 18:12.66 | 7:04.46 | 81966 | 113811

Range status and errors

Selected range

Filename C:MusicMartin Herterich – EstoniaMartin Herterich – Estonia.wav

Peak level 100.0 %
Range quality 100.0 %
Test CRC 55FDEDC2
Copy CRC 55FDEDC2
Copy OK

No errors occurred

AccurateRip summary

Track 1 accurately ripped (confidence 1) [9E17942B]
Track 2 not present in database
Track 3 accurately ripped (confidence 1) [D4D37580]

2 track(s) accurately ripped
1 track(s) not present in the AccurateRip database

Some tracks could not be verified as accurate

End of status report

CUETools log
[CUETools log; Date: 07.07.2017 19:32:36; Version: 2.1.4]
[CTDB TOCID: JkaGjBAZwh3cuVs6vQkboWjjug0-] found.
Track | CTDB Status
1 | (1/1) Accurately ripped
2 | (1/1) Accurately ripped
3 | (1/1) Accurately ripped
[AccurateRip ID: 0003516d-000b5c31-1c05ed03] found.
Track [ CRC | V2 ] Status
01 [9e17942b|fc86cb46] (1+0/1) Accurately ripped
02 [3960c6bc|fdaf1f49] (1+0/2) Accurately ripped
03 [d4d37580|9904d89a] (1+0/1) Accurately ripped

Track Peak [ CRC32 ] [W/O NULL] [ LOG ]
– 100,0 [55FDEDC2] [1F5FAA18] CRC32
01 70,3 [E01881CA] [37A1B6BC]
02 100,0 [CAF71329] [CCA686AD]
03 100,0 [1B800140] [07E86D35]

Thanks to Буба Стеккер

Welcome to My Blog!

Martin Herterich – Estonia (2009) Download, Warez, DDL, Free, Full Album, Torrent, Legal.

Download