Marisa Monte – Universo Ao Meu Redor (2006) {Metro Blue}

Download
Marisa Monte - Universo Ao Meu Redor (2006) {Metro Blue}

Marisa Monte – Universo Ao Meu Redor (2006) {Metro Blue}
EAC Rip | FLAC with CUE and log | scans | 297 mb
MP3 CBR 320kbps | RAR | 119 mb
Genre: Latin pop, Bossa Nova, Brazilian

Universo Ao Meu Redor is the 2006 album by Brazlian singer Marisa Monte. This was released through Blue Note Records’ Latin music subsidiary, Metro Blue. The album was co-produced with Monte and Mario Caldato Jr., the latter known for his years with the Beastie Boys.

Marisa Monte - Universo Ao Meu Redor (2006) {Metro Blue}

1. Universo Ao Meu Redor (3:11)
2. O Bonde Do Dom (4:02)
3. Meu Canario (3:12)
4. Tres Letrinhas (4:09)
5. Quatro Paredes (3:13)
6. Perdoa Meu Amor (3:04)
7. Cantinho Escondido (3:48)
8. Statue Of Liberty (1:13)
9. A Alma E A Materia (3:30)
10. Lagrimas E Tormentos (4:32)
11. Satisfeito (3:08)
12. Para Mais Ninguem (3:14)
13. Vai Saber (3:59)
14. Pétalas Esquecidas (2:33)

Produced by Mario Caldato Jr. & Marisa Monte
Recorded and mixed by Mario Caldato Jr.
Mastered by Bernie Grundman

EAC Log
Exact Audio Copy V1.1 from 23. June 2015

EAC extraction logfile from 20. December 2016, 13:54

Marisa Monte / Universo Ao Meu Redor

Used drive : TEAC DVD-ROM DV-28SW Adapter: 1 ID: 0

Read mode : Secure
Utilize accurate stream : Yes
Defeat audio cache : Yes
Make use of C2 pointers : No

Read offset correction : 6
Overread into Lead-In and Lead-Out : No
Fill up missing offset samples with silence : Yes
Delete leading and trailing silent blocks : No
Null samples used in CRC calculations : Yes
Used interface : Native Win32 interface for Win NT & 2000
Gap handling : Appended to previous track

Used output format : Internal WAV Routines
Sample format : 44.100 Hz; 16 Bit; Stereo

TOC of the extracted CD

Track | Start | Length | Start sector | End sector
––––––––––––––––––––––––––––-
1 | 0:00.00 | 3:11.63 | 0 | 14387
2 | 3:11.63 | 4:03.51 | 14388 | 32663
3 | 7:15.39 | 3:13.71 | 32664 | 47209
4 | 10:29.35 | 4:10.68 | 47210 | 66027
5 | 14:40.28 | 3:14.12 | 66028 | 80589
6 | 17:54.40 | 3:05.61 | 80590 | 94525
7 | 21:00.26 | 3:50.27 | 94526 | 111802
8 | 24:50.53 | 1:13.48 | 111803 | 117325
9 | 26:04.26 | 3:29.73 | 117326 | 133073
10 | 29:34.24 | 4:31.61 | 133074 | 153459
11 | 34:06.10 | 3:09.27 | 153460 | 167661
12 | 37:15.37 | 3:16.31 | 167662 | 182392
13 | 40:31.68 | 4:00.24 | 182393 | 200416
14 | 44:32.17 | 2:33.35 | 200417 | 211926

Track 1

Filename C:My DocumentsMy FLACMarisa Monte – Universo Ao Meu Redor (2006) [FLAC] {Metro Blue}1 – Universo Ao Meu Redor.wav

Pre-gap length 0:00:02.00

Peak level 98.8 %
Extraction speed 1.1 X
Track quality 100.0 %
Test CRC 2F1ADFEA
Copy CRC 2F1ADFEA
Accurately ripped (confidence 6) [0B3A269C] (AR v2)
Copy OK

Track 2

Filename C:My DocumentsMy FLACMarisa Monte – Universo Ao Meu Redor (2006) [FLAC] {Metro Blue}2 – O Bonde Do Dom.wav

Pre-gap length 0:00:00.54

Peak level 98.8 %
Extraction speed 1.1 X
Track quality 99.9 %
Test CRC D8A618E1
Copy CRC D8A618E1
Accurately ripped (confidence 6) [CF28F9CE] (AR v2)
Copy OK

Track 3

Filename C:My DocumentsMy FLACMarisa Monte – Universo Ao Meu Redor (2006) [FLAC] {Metro Blue}3 – Meu Canário.wav

Pre-gap length 0:00:01.20

Peak level 98.8 %
Extraction speed 1.2 X
Track quality 100.0 %
Test CRC 7DAD0E06
Copy CRC 7DAD0E06
Accurately ripped (confidence 6) [206010CA] (AR v2)
Copy OK

Track 4

Filename C:My DocumentsMy FLACMarisa Monte – Universo Ao Meu Redor (2006) [FLAC] {Metro Blue}4 – Três Letrinhas.wav

Pre-gap length 0:00:01.74

Peak level 98.8 %
Extraction speed 1.3 X
Track quality 100.0 %
Test CRC 034B7E54
Copy CRC 034B7E54
Accurately ripped (confidence 6) [AB6A70B0] (AR v2)
Copy OK

Track 5

Filename C:My DocumentsMy FLACMarisa Monte – Universo Ao Meu Redor (2006) [FLAC] {Metro Blue}5 – Quatro Paredes.wav

Pre-gap length 0:00:01.30

Peak level 98.8 %
Extraction speed 1.4 X
Track quality 100.0 %
Test CRC 06C14757
Copy CRC 06C14757
Accurately ripped (confidence 6) [93F360EB] (AR v2)
Copy OK

Track 6

Filename C:My DocumentsMy FLACMarisa Monte – Universo Ao Meu Redor (2006) [FLAC] {Metro Blue}6 – Perdoa, Meu Amor.wav

Pre-gap length 0:00:02.01

Peak level 98.8 %
Extraction speed 1.5 X
Track quality 100.0 %
Test CRC 2E1E0307
Copy CRC 2E1E0307
Accurately ripped (confidence 6) [CEDB01E8] (AR v2)
Copy OK

Track 7

Filename C:My DocumentsMy FLACMarisa Monte – Universo Ao Meu Redor (2006) [FLAC] {Metro Blue}7 – Cantinho Escondido.wav

Pre-gap length 0:00:01.35

Peak level 98.8 %
Extraction speed 1.5 X
Track quality 100.0 %
Test CRC A36D171F
Copy CRC A36D171F
Accurately ripped (confidence 6) [6C21DE39] (AR v2)
Copy OK

Track 8

Filename C:My DocumentsMy FLACMarisa Monte – Universo Ao Meu Redor (2006) [FLAC] {Metro Blue}8 – Statue Of Liberty.wav

Pre-gap length 0:00:02.17

Peak level 98.8 %
Extraction speed 1.1 X
Track quality 100.0 %
Test CRC BB173B32
Copy CRC BB173B32
Accurately ripped (confidence 6) [607B0F10] (AR v2)
Copy OK

Track 9

Filename C:My DocumentsMy FLACMarisa Monte – Universo Ao Meu Redor (2006) [FLAC] {Metro Blue}9 – A Alma E A Matéria.wav

Pre-gap length 0:00:00.18

Peak level 98.8 %
Extraction speed 1.6 X
Track quality 100.0 %
Test CRC D97E1492
Copy CRC D97E1492
Accurately ripped (confidence 6) [86D2DD05] (AR v2)
Copy OK

Track 10

Filename C:My DocumentsMy FLACMarisa Monte – Universo Ao Meu Redor (2006) [FLAC] {Metro Blue}10 – Làgrimas E Tormentos.wav

Peak level 98.8 %
Extraction speed 1.6 X
Track quality 100.0 %
Test CRC CAF5526A
Copy CRC CAF5526A
Accurately ripped (confidence 6) [012ECDAE] (AR v2)
Copy OK

Track 11

Filename C:My DocumentsMy FLACMarisa Monte – Universo Ao Meu Redor (2006) [FLAC] {Metro Blue}11 – Satisfeito.wav

Peak level 98.8 %
Extraction speed 1.2 X
Track quality 100.0 %
Test CRC 67ECFA97
Copy CRC 67ECFA97
Accurately ripped (confidence 6) [28C5BA63] (AR v2)
Copy OK

Track 12

Filename C:My DocumentsMy FLACMarisa Monte – Universo Ao Meu Redor (2006) [FLAC] {Metro Blue}12 – Para Mais Ninguém.wav

Pre-gap length 0:00:00.74

Peak level 98.8 %
Extraction speed 1.2 X
Track quality 100.0 %
Test CRC A7C8FF54
Copy CRC A7C8FF54
Accurately ripped (confidence 6) [B6AEAF61] (AR v2)
Copy OK

Track 13

Filename C:My DocumentsMy FLACMarisa Monte – Universo Ao Meu Redor (2006) [FLAC] {Metro Blue}13 – Vai Saber.wav

Pre-gap length 0:00:02.03

Peak level 98.8 %
Extraction speed 1.7 X
Track quality 99.9 %
Test CRC 2B415243
Copy CRC 2B415243
Accurately ripped (confidence 6) [36ED2697] (AR v2)
Copy OK

Track 14

Filename C:My DocumentsMy FLACMarisa Monte – Universo Ao Meu Redor (2006) [FLAC] {Metro Blue}14 – P’etalas Esquecidas.wav

Pre-gap length 0:00:01.38

Peak level 98.8 %
Extraction speed 1.5 X
Track quality 100.0 %
Test CRC 5E720D83
Copy CRC 5E720D83
Accurately ripped (confidence 6) [7F0DC895] (AR v2)
Copy OK

All tracks accurately ripped

No errors occurred

End of status report

–– CUETools DB Plugin V2.1.6

[CTDB TOCID: 1CZD9jOiLVuaE0FAl_GlMfKidf0-] found
Submit result: 1CZD9jOiLVuaE0FAl_GlMfKidf0- has been confirmed
Track | CTDB Status
1 | (5/6) Accurately ripped, or (1/6) differs in 273 samples @00:13:56
2 | (6/6) Accurately ripped
3 | (6/6) Accurately ripped
4 | (6/6) Accurately ripped
5 | (6/6) Accurately ripped
6 | (6/6) Accurately ripped
7 | (6/6) Accurately ripped
8 | (6/6) Accurately ripped
9 | (6/6) Accurately ripped
10 | (6/6) Accurately ripped
11 | (6/6) Accurately ripped
12 | (6/6) Accurately ripped
13 | (6/6) Accurately ripped
14 | (6/6) Accurately ripped

==== Log checksum 2AA765656CD77E8D1A5E57863A6F739A59BC20B26703B25E6D17A28A8F756CC3 ====

Marisa Monte – Universo Ao Meu Redor (2006) {Metro Blue} Download, Warez, DDL, Free, Full Album, Torrent, Legal.

Download