Marion Verbruggen, Ton Koopman, Jaap Ter Linden – George Frideric Handel: The Complete Sonatas for Recorder (1995)

Download
Marion Verbruggen, Ton Koopman, Jaap Ter Linden - George Frideric Handel: The Complete Sonatas for Recorder (1995)

George Frideric Handel: The Complete Sonatas for Recorder (1995)
Marion Verbruggen, recorder; Ton Koopman, harpsichord; Jaap Ter Linden, violoncello

EAC | APE | Image (Cue&Log) ~ 319 Mb | Mp3 (CBR320) ~ 174 Mb | Scans included
Genre: Classical | Label: Harmonia Mundi | # HMU 907151 | Time: 00:57:38

If only for his melodic genius, Handel would have been forever acknowledged as one of history’s greatest composers. These delightful sonatas for recorder provide abundant evidence to support that claim, and Marion Verbruggen’s warm, resonant recorder and brilliant flute prove the perfect partners for bringing these rarely heard pieces to life.

Review by David Vernier

These are very lively and musically intelligent performances of the Handel recorder sonatas. All six are given: the four from the published Op. 1 set, one from a Fitzwilliam manuscript, and also – a shade perversely – a flute sonata as published in Op. 1, played here on a flute, although it does in fact exist in a recorder version in a different key (the booklet supposes that the recorder version in D minor is used, but it is actually the B minor flute one). Well, that’s a minor point. The major one is that this is outstandingly fine recorder playing, sweet in tone, pointed in articulation, perfectly tuned, technically very fluent, and informed by a really good understanding of the art of ornamentation. I dare say Gramophone readers are bored with my complaints about poor ornamentation, but this disc bears me out simply because it gets it right and is so successful. The essence of it is that it is truly ornamental: it embellishes the lines that Handel wrote, doing all sorts of interesting and entertaining things with and around them, without violating them or writing new music that has nothing to do with them.

Add to that the fact that Marion Verbruggen has a real command of Handel’s language and you will realize that this CD is out of the ordinary. She knows how to make caesuras, and how generously or meanly they should be made. She knows just how much or little agogic accent is needed to point a phrase enticingly. She knows about tempo, and about when to use staccato or full-length notes. You will find yourself smiling at the ornamentation, for example in the finale of HWV369. There is a nice hint of rhetoric at times, as in the first movement of HWV362 – listen in that sonata, too, to the pointed accentuation in the second movement and the fresh playing in the finale. There is wit again in the timing of the HWV360 finale. In HWV365 I specially liked the discretion in the ornamentation of the already elaborate first movement and the rhythm in the two dance movements at the end – the gavotte gentle and very charming, the minuet spirited. Then the third movement of the Flute Sonata (HWV367b) is done with great virtuosity. I find some of Ton Koopman’s accompaniments a little busy (half are on the organ, half on the harpsichord), but it’s all part of the sense of lively music-making that runs through this attractive disc.’

Review by Stanley Sadie, Gramophone Magazine

Marion Verbruggen, Ton Koopman, Jaap Ter Linden - George Frideric Handel: The Complete Sonatas for Recorder (1995)

Handel at Allmusic
Handel at Wiki
Marion Verbruggen, Ton Koopman, Jaap Ter Linden - George Frideric Handel: The Complete Sonatas for Recorder (1995)

Marion Verbruggen at Allmusic
Marion Verbruggen at Wiki

Marion Verbruggen, recorder & flute
Ton Koopman, harpsichord & chest organ
Jaap Ter Linden, violoncello

Recorded April 27-29, 1994, in the Waalse Kerk, Amsterdam.

Tracklist:

Sonata XI In F Major, Op. 1, No. 11
01. 1 Larghetto (2:08)
02. 2 Allegro (2:07)
03. 3 Siciliana (1:12)
04. 4 Allegro (2:03)

Sonata IV In A Minor, Op. 1, No. 4
05. 1 Larghetto (2:31)
06. 2 Allegro (2:27)
07. 3 Adagio (2:06)
08. 4 Allegro (3:37)

Sonata II In G Minor, Op. 1, No. 2
09. 1 Larghetto (1:57)
10. 2 Andante (3:11)
11. 3 Adagio (0:41)
12. 4 Presto (1:53)

Sonata VII In C Major, Op. 1, no. 7
13. 1 Larghetto (2:31)
14. 2 Allegro (2:03)
15. 3 Larghetto (1:56)
16. 4 Tempo di gavotti (2:24)
17. 5 Allegro (2:20)

Sonata IX In D Minor, Op. 1, no. 9
18. 1 Largo (2:05)
19. 2 Vivace (3:18)
20. 3 Presto (2:08)
21. 4 Adagio (1:05)
22. 5 Alla breve (1:36)
23. 6 Andante (2:39)
24. 7 A tempo di minuet (1:37)

Sonata I In B-Flat Major, HY 418
25. 1 Courante (2:09)
26. 2 Adagio (1:14)
27. 3 Allegro (2:42)

EAC log
Exact Audio Copy V0.99 prebeta 4 from 23. January 2008

EAC extraction logfile from 15. July 2009, 11:19

Georg Friederich Handel (Verbruggen, Koopman, Ter Linden) / The Complete Sonatas for Recorder

Used drive : Optiarc DVD RW AD-7201A Adapter: 0 ID: 1

Read mode : Secure
Utilize accurate stream : Yes
Defeat audio cache : Yes
Make use of C2 pointers : No

Read offset correction : 48
Overread into Lead-In and Lead-Out : No
Fill up missing offset samples with silence : Yes
Delete leading and trailing silent blocks : No
Null samples used in CRC calculations : Yes
Used interface : Native Win32 interface for Win NT & 2000

Used output format : Monkey’s Audio Lossless Encoder
Selected bitrate : Normal Lossless Compression
Quality : High
Add ID3 tag : Yes
Command line compressor : C:Program FilesMonkey’s AudioMAC.exe
Additional command line options : -T "ARTIST=%a" -T "TITLE=%t" -T "ALBUM=%g" -T "DATE=%y" -T "TRACKNUMBER=%n" -T "GENRE=%m" -T "COMMENT=%e" -c2000 -v

TOC of the extracted CD

Track | Start | Length | Start sector | End sector
––––––––––––––––––––––––––––-
1 | 0:00.00 | 2:07.47 | 0 | 9571
2 | 2:07.47 | 2:06.50 | 9572 | 19071
3 | 4:14.22 | 1:11.43 | 19072 | 24439
4 | 5:25.65 | 2:03.07 | 24440 | 33671
5 | 7:28.72 | 2:30.50 | 33672 | 44971
6 | 9:59.47 | 2:27.00 | 44972 | 55996
7 | 12:26.47 | 2:05.55 | 55997 | 65426
8 | 14:32.27 | 3:36.43 | 65427 | 81669
9 | 18:08.70 | 1:57.35 | 81670 | 90479
10 | 20:06.30 | 3:11.12 | 90480 | 104816
11 | 23:17.42 | 0:40.58 | 104817 | 107874
12 | 23:58.25 | 1:52.42 | 107875 | 116316
13 | 25:50.67 | 2:30.70 | 116317 | 127636
14 | 28:21.62 | 2:03.25 | 127637 | 136886
15 | 30:25.12 | 1:55.45 | 136887 | 145556
16 | 32:20.57 | 2:23.40 | 145557 | 156321
17 | 34:44.22 | 2:19.45 | 156322 | 166791
18 | 37:03.67 | 2:05.08 | 166792 | 176174
19 | 39:09.00 | 3:17.70 | 176175 | 191019
20 | 42:26.70 | 2:07.57 | 191020 | 200601
21 | 44:34.52 | 1:04.55 | 200602 | 205456
22 | 45:39.32 | 1:35.48 | 205457 | 212629
23 | 47:15.05 | 2:39.30 | 212630 | 224584
24 | 49:54.35 | 1:37.37 | 224585 | 231896
25 | 51:31.72 | 2:09.23 | 231897 | 241594
26 | 53:41.20 | 1:14.02 | 241595 | 247146
27 | 54:55.22 | 2:42.35 | 247147 | 259331

Range status and errors

Selected range

Filename E:Georg Friederich Handel (Verbruggen, Koopman, Ter Linden) – The Complete Sonatas for Recorder.wav

Peak level 87.7 %
Range quality 100.0 %
Copy CRC 0BED31FA
Copy OK

No errors occurred

AccurateRip summary

Track 1 accurately ripped (confidence 3) [12A3B680]
Track 2 accurately ripped (confidence 3) [A0FAC1B0]
Track 3 accurately ripped (confidence 3) [33B8B5C7]
Track 4 accurately ripped (confidence 3) [BFCDD91B]
Track 5 accurately ripped (confidence 3) [5F114683]
Track 6 accurately ripped (confidence 3) [9C964D91]
Track 7 accurately ripped (confidence 3) [3B265CB8]
Track 8 accurately ripped (confidence 3) [E5519F09]
Track 9 accurately ripped (confidence 3) [1E4F5827]
Track 10 accurately ripped (confidence 3) [54B03A7F]
Track 11 accurately ripped (confidence 3) [8A163721]
Track 12 accurately ripped (confidence 3) [74E1D308]
Track 13 accurately ripped (confidence 3) [871D7074]
Track 14 accurately ripped (confidence 3) [8DC953B5]
Track 15 accurately ripped (confidence 3) [927A1D3A]
Track 16 accurately ripped (confidence 3) [A32263B6]
Track 17 accurately ripped (confidence 3) [5BB53387]
Track 18 accurately ripped (confidence 3) [BA59CC6D]
Track 19 accurately ripped (confidence 3) [EB2754C8]
Track 20 accurately ripped (confidence 3) [EEA74476]
Track 21 accurately ripped (confidence 3) [53AA3BEC]
Track 22 accurately ripped (confidence 3) [65E35FFD]
Track 23 accurately ripped (confidence 3) [D7DB082B]
Track 24 accurately ripped (confidence 3) [0477DA9A]
Track 25 accurately ripped (confidence 3) [FE3DADCF]
Track 26 accurately ripped (confidence 3) [EEB35BA9]
Track 27 accurately ripped (confidence 3) [C8DDC085]

All tracks accurately ripped

End of status report

AR log
[CUETools log; Date: 29.07.2017 4:08:38; Version: 2.1.4]
[CTDB TOCID: S54ehAEkwK5fWeijDG8wYV21zfk-] found.
Track | CTDB Status
1 | (22/23) Accurately ripped
2 | (22/23) Accurately ripped
3 | (22/23) Accurately ripped
4 | (22/23) Accurately ripped
5 | (22/23) Accurately ripped
6 | (22/23) Accurately ripped
7 | (22/23) Accurately ripped
8 | (22/23) Accurately ripped
9 | (22/23) Accurately ripped
10 | (22/23) Accurately ripped
11 | (22/23) Accurately ripped
12 | (22/23) Accurately ripped
13 | (22/23) Accurately ripped
14 | (22/23) Accurately ripped
15 | (22/23) Accurately ripped
16 | (22/23) Accurately ripped
17 | (22/23) Accurately ripped
18 | (22/23) Accurately ripped
19 | (22/23) Accurately ripped
20 | (22/23) Accurately ripped
21 | (22/23) Accurately ripped
22 | (22/23) Accurately ripped
23 | (22/23) Accurately ripped
24 | (22/23) Accurately ripped
25 | (22/23) Accurately ripped
26 | (22/23) Accurately ripped
27 | (23/23) Accurately ripped
[AccurateRip ID: 00381efa-043daa2a-840d811b] found.
Track [ CRC | V2 ] Status
01 [12a3b680|50f23d33] (14+09/51) Accurately ripped
02 [a0fac1b0|7f5180eb] (14+09/50) Accurately ripped
03 [33b8b5c7|57c0d6ef] (14+09/51) Accurately ripped
04 [bfcdd91b|7f1e40b3] (14+09/51) Accurately ripped
05 [5f114683|cd727cdf] (14+09/50) Accurately ripped
06 [9c964d91|5c12d187] (14+08/49) Accurately ripped
07 [3b265cb8|7402a8cd] (14+09/50) Accurately ripped
08 [e5519f09|b100f73e] (14+09/50) Accurately ripped
09 [1e4f5827|43391c50] (14+09/50) Accurately ripped
10 [54b03a7f|dec05696] (14+09/50) Accurately ripped
11 [8a163721|68e80faa] (14+09/50) Accurately ripped
12 [74e1d308|b6a17d0a] (14+09/50) Accurately ripped
13 [871d7074|7bb3fda1] (14+09/50) Accurately ripped
14 [8dc953b5|e7916d37] (14+09/50) Accurately ripped
15 [927a1d3a|a348feb4] (14+08/49) Accurately ripped
16 [a32263b6|267a118c] (14+09/50) Accurately ripped
17 [5bb53387|07d08a14] (14+09/50) Accurately ripped
18 [ba59cc6d|a03c8147] (13+09/49) Accurately ripped
19 [eb2754c8|d5e09d70] (14+09/50) Accurately ripped
20 [eea74476|0dccd8b2] (14+08/49) Accurately ripped
21 [53aa3bec|c91e5ad6] (14+09/50) Accurately ripped
22 [65e35ffd|931d8a97] (14+09/50) Accurately ripped
23 [d7db082b|7f9a4f85] (12+09/48) Accurately ripped
24 [0477da9a|ce933450] (14+09/50) Accurately ripped
25 [fe3dadcf|164d6d0d] (14+09/50) Accurately ripped
26 [eeb35ba9|79828ed0] (14+09/50) Accurately ripped
27 [c8ddc085|9689f661] (14+08/49) Accurately ripped
Offsetted by -1151:
01 [8181f632] (05/51) Accurately ripped
02 [d291ab05] (05/50) Accurately ripped
03 [7bfde59b] (05/51) Accurately ripped
04 [03b89448] (05/51) Accurately ripped
05 [ae8bdb8e] (05/50) Accurately ripped
06 [232e7bb5] (05/49) Accurately ripped
07 [367048ed] (05/50) Accurately ripped
08 [ec546f96] (05/50) Accurately ripped
09 [15d7e4f8] (05/50) Accurately ripped
10 [3555c26a] (05/50) Accurately ripped
11 [4860ebec] (05/50) Accurately ripped
12 [f313e21a] (05/50) Accurately ripped
13 [87902a50] (05/50) Accurately ripped
14 [8af555cc] (05/50) Accurately ripped
15 [880b5ab7] (05/49) Accurately ripped
16 [a1522cd2] (05/50) Accurately ripped
17 [7a1e1894] (05/50) Accurately ripped
18 [85f68209] (05/49) Accurately ripped
19 [527a8acb] (05/50) Accurately ripped
20 [0f146034] (05/49) Accurately ripped
21 [43bf4243] (05/50) Accurately ripped
22 [6f6cc728] (05/50) Accurately ripped
23 [5f90f0a7] (05/48) Accurately ripped
24 [8dfbe3b2] (05/50) Accurately ripped
25 [900a49e8] (05/50) Accurately ripped
26 [72156a20] (05/50) Accurately ripped
27 [40ebc3ce] (05/49) Accurately ripped
Offsetted by -669:
01 [2ea21f6d] (07/51) Accurately ripped
02 [caf4d5f9] (07/50) Accurately ripped
03 [9f2e3c17] (07/51) Accurately ripped
04 [185014a0] (07/51) Accurately ripped
05 [1116be4f] (07/50) Accurately ripped
06 [934e7961] (07/49) Accurately ripped
07 [c26c802f] (07/50) Accurately ripped
08 [b7842b5c] (07/50) Accurately ripped
09 [995d0a25] (07/50) Accurately ripped
10 [21d8186a] (07/50) Accurately ripped
11 [581a9f3b] (07/50) Accurately ripped
12 [bbabbabc] (07/50) Accurately ripped
13 [6effcaf1] (07/50) Accurately ripped
14 [e3145035] (07/50) Accurately ripped
15 [a6177911] (07/49) Accurately ripped
16 [9d783b1c] (07/50) Accurately ripped
17 [c557b9e9] (07/50) Accurately ripped
18 [fdd94d7b] (07/49) Accurately ripped
19 [b4cf176b] (07/50) Accurately ripped
20 [af6cbd3d] (07/49) Accurately ripped
21 [e4dac929] (07/50) Accurately ripped
22 [4078da31] (07/50) Accurately ripped
23 [56437446] (07/48) Accurately ripped
24 [4e700d36] (07/50) Accurately ripped
25 [8c10702a] (07/50) Accurately ripped
26 [3368d7b6] (07/50) Accurately ripped
27 [e46d6d32] (07/49) Accurately ripped

Track Peak [ CRC32 ] [W/O NULL] [ LOG ]
– 87,7 [0BED31FA] [AF241FFC] CRC32
01 52,7 [6728F8CC] [820DB185]
02 50,4 [D8346597] [F0F5D17C]
03 61,9 [5D163BC1] [651F6C7B]
04 46,5 [D75774C6] [B0CDBAB5]
05 57,5 [A653E0F7] [CF7A4500]
06 77,7 [5C631C8A] [7319C449]
07 64,7 [0F66F8AB] [A21F936A]
08 87,7 [C58DCE5F] [64537478]
09 61,2 [6C01ED24] [4CDDF43D]
10 58,9 [46B26A1A] [75A0E92C]
11 53,6 [2C872008] [B6EBDBB1]
12 63,5 [CF4CC847] [7AA28439]
13 75,5 [7593F9B5] [FD07929C]
14 82,7 [605E1C08] [854143F9]
15 57,1 [E377647C] [0BC7676A]
16 77,2 [A57E17BB] [B80A8764]
17 54,0 [C71DF781] [607935EA]
18 53,9 [0B4BD4F5] [84289501]
19 85,0 [B8C5A93D] [6385A73B]
20 54,1 [9F176C1C] [7AB1EC7D]
21 55,8 [1605DE92] [77B5D9C4]
22 72,3 [5CBC8268] [FA6407E7]
23 61,7 [A79232A0] [4884A60C]
24 50,8 [D0FE6B29] [F77D734C]
25 71,8 [E75C5415] [9FF82DC1]
26 68,7 [656CFE65] [42FA4FE5]
27 83,2 [C76D1836] [4220D062]

DR log
foobar2000 1.2 / Dynamic Range Meter 1.1.1
log date: 2017-07-29 05:13:34

––––––––––––––––––––––––––––––––––––––––
Analyzed: Georg Friederich Handel (Verbruggen, Koopman, Ter Linden) / The Complete Sonatas for Recorder
––––––––––––––––––––––––––––––––––––––––

DR Peak RMS Duration Track
––––––––––––––––––––––––––––––––––––––––
DR10 -5.56 dB -18.43 dB 2:08 01-(hwv 369) Sonata in F Major, op. 1, no. 11 – 1 Larghetto
DR11 -5.94 dB -18.75 dB 2:07 02-(hwv 369) Sonata in F Major, op. 1, no. 11 – 2 Allegro
DR10 -4.15 dB -18.40 dB 1:12 03-(hwv 369) Sonata in F Major, op. 1, no. 11 – 3 Siciliana
DR10 -6.65 dB -18.71 dB 2:03 04-(hwv 369) Sonata in F Major, op. 1, no. 11 – 4 Allegro
DR10 -4.80 dB -18.27 dB 2:31 05-(hwv 362) Sonata in A Minor, op. 1, no. 4 – 1 Larghetto
DR12 -2.19 dB -18.27 dB 2:27 06-(hwv 362) Sonata in A Minor, op. 1, no. 4 – 2 Allegro
DR9 -3.77 dB -18.46 dB 2:06 07-(hwv 362) Sonata in A Minor, op. 1, no. 4 – 3 Adagio
DR12 -1.13 dB -17.98 dB 3:37 08-(hwv 362) Sonata in A Minor, op. 1, no. 4 – 4 Allegro
DR10 -4.26 dB -17.47 dB 1:57 09-(hwv 360) Sonata in G Minor, op. 1, no. 2 – 1 Larghetto
DR10 -4.59 dB -18.55 dB 3:11 10-(hwv 360) Sonata in G Minor, op. 1, no. 2 – 2 Andante
DR8 -5.40 dB -17.76 dB 0:41 11-(hwv 360) Sonata in G Minor, op. 1, no. 2 – 3 Adagio
DR10 -3.94 dB -17.80 dB 1:53 12-(hwv 360) Sonata in G Minor, op. 1, no. 2 – 4 Presto
DR9 -2.43 dB -16.30 dB 2:31 13-(hwv 365) Sonata in C Major, op. 1, no. 7 – 1 Larghetto
DR10 -1.65 dB -17.18 dB 2:03 14-(hwv 365) Sonata in C Major, op. 1, no. 7 – 2 Allegro
DR8 -4.86 dB -18.70 dB 1:56 15-(hwv 365) Sonata in C Major, op. 1, no. 7 – 3 Larghetto
DR11 -2.24 dB -17.51 dB 2:24 16-(hwv 365) Sonata in C Major, op. 1, no. 7 – 4 Tempo di gavotti
DR10 -5.34 dB -19.17 dB 2:20 17-(hwv 365) Sonata in C Major, op. 1, no. 7 – 5 Allegro
DR11 -5.35 dB -20.79 dB 2:05 18-(hwv 367b) Sonata in B Minor, op. 1, no. 9 – 1 Largo
DR12 -1.40 dB -19.21 dB 3:18 19-(hwv 367b) Sonata in B Minor, op. 1, no. 9 – 2 Vivace
DR12 -5.33 dB -20.57 dB 2:08 20-(hwv 367b) Sonata in B Minor, op. 1, no. 9 – 3 Presto
DR10 -5.07 dB -19.22 dB 1:05 21-(hwv 367b) Sonata in B Minor, op. 1, no. 9 – 4 Adagio
DR9 -2.81 dB -18.29 dB 1:36 22-(hwv 367b) Sonata in B Minor, op. 1, no. 9 – 5 Alla breve
DR10 -4.18 dB -18.80 dB 2:39 23-(hwv 367b) Sonata in B Minor, op. 1, no. 9 – 6 Andante
DR10 -5.87 dB -19.34 dB 1:37 24-(hwv 367b) Sonata in B Minor, op. 1, no. 9 – 7 A tempo di minuet
DR11 -2.87 dB -17.79 dB 2:09 25-(hwv 377) Sonata in B-flat Major, HY 418 – 1 Courante
DR9 -3.26 dB -16.86 dB 1:14 26-(hwv 377) Sonata in B-flat Major, HY 418 – 2 Adagio
DR12 -1.59 dB -17.86 dB 2:42 27-(hwv 377) Sonata in B-flat Major, HY 418 – 3 Allegro
––––––––––––––––––––––––––––––––––––––––

Number of tracks: 27
Official DR value: DR10

Samplerate: 44100 Hz
Channels: 2
Bits per sample: 16
Bitrate: 673 kbps
Codec: Monkey’s Audio
================================================================================

Marion Verbruggen, Ton Koopman, Jaap Ter Linden - George Frideric Handel: The Complete Sonatas for Recorder (1995)

Marion Verbruggen, Ton Koopman, Jaap Ter Linden - George Frideric Handel: The Complete Sonatas for Recorder (1995)

All thanks to original releaser – AlxBTShees

More G.F. Handel music in My Blog

Marion Verbruggen, Ton Koopman, Jaap Ter Linden – George Frideric Handel: The Complete Sonatas for Recorder (1995) Download, Warez, DDL, Free, Full Album, Torrent, Legal.

Download