Marihiko Hara – Landscape In Portrait (2017) {Beat}

Download
Marihiko Hara - Landscape In Portrait (2017) {Beat}

Marihiko Hara – Landscape In Portrait (2017)
EAC Rip | FLAC (tracks+.cue, log) | Artwork (600dpi, png) | 354 mb | MP3 CBR 320kbps | RAR | 247 mb
Piano, Ambient, Neo Classical | Label: Beat Records – BRC-523

He is an acclaimed composer / pianist living in Kyoto who is active in collaboration with Ryuichi Sakamoto, Shiro Takaya, Noda Hideki etc, who has been active in a wide range of fields from post-classical to contemporary art, performing arts, Mitoshihiko’s new album "Landscape in Portrait" will be released from <Beat Records>.

Marihiko Hara - Landscape In Portrait (2017) {Beat}

This work which became a serene collection of work centered around the gentle nostalgic piano sound, has been used for solo albums for solo albums for the installation work he worked on and for the images and the stage for the last few years While constructing and fusing the everyday sound of an acoustic piano and field recording, he draws a unique "landscape in self-portrait".

Marihiko Hara - Landscape In Portrait (2017) {Beat}

There, an unusual talent as a melody maker, a Kyoto-like sensibility and aesthetic sense clearly emerge, a serene piano that penetrates into the heart with a single person, and a music with a strong soundscape color complement each other, We undoubtedly uniquely unique "self portrait".

Marihiko Hara - Landscape In Portrait (2017) {Beat}

Tracklist:

Marihiko Hara - Landscape In Portrait (2017) {Beat}

01. Circle Of Life (03:41)
02. Sanson Yojo (03:46)
03. Carina (03:52)
04. Nuage (02:54)
05. K’s Perspective (02:59)
06. Driftwood (03:45)
07. Portrait In The Mirror (05:02)
08. Entrée (01:54)
09. Yoru Ga Mita Keshiki (05:39)
10. Papyrus (01:14)
11. Essay (03:50)
12. Cadence (02:51)
13. Fountain (05:03)
14. Grazia (04:11)
15. Vita (02:47)

EAC log
Exact Audio Copy V1.3 from 2. September 2016

EAC extraction logfile from 13. February 2017, 21:49

Marihiko Hara / Landscape In Portrait

Used drive : PLEXTOR DVDR PX-891SAW Adapter: 1 ID: 0

Read mode : Secure
Utilize accurate stream : Yes
Defeat audio cache : Yes
Make use of C2 pointers : No

Read offset correction : 48
Overread into Lead-In and Lead-Out : No
Fill up missing offset samples with silence : Yes
Delete leading and trailing silent blocks : No
Null samples used in CRC calculations : Yes
Used interface : Native Win32 interface for Win NT & 2000
Gap handling : Appended to previous track

Used output format : User Defined Encoder
Selected bitrate : 1024 kBit/s
Quality : High
Add ID3 tag : No
Command line compressor : C:Program Files (x86)Exact Audio CopyFlacflac.exe
Additional command line options : -8 -V -T "ARTIST=%artist%" -T "TITLE=%title%" -T "ALBUM=%albumtitle%" -T "DATE=%year%" -T "TRACKNUMBER=%tracknr%" -T "GENRE=%genre%" -T "PERFORMER=%albuminterpret%" -T "COMPOSER=%composer%" %haslyrics%–tag-from-file=LYRICS="%lyricsfile%"%haslyrics% -T "ALBUMARTIST=%albumartist%" -T "DISCNUMBER=%cdnumber%" -T "TOTALDISCS=%totalcds%" -T "TOTALTRACKS=%numtracks%" -T "COMMENT=%comment%" %source% -o %dest%

TOC of the extracted CD

Track | Start | Length | Start sector | End sector
––––––––––––––––––––––––––––-
1 | 0:00.00 | 3:41.17 | 0 | 16591
2 | 3:41.17 | 3:46.11 | 16592 | 33552
3 | 7:27.28 | 3:52.19 | 33553 | 50971
4 | 11:19.47 | 2:53.41 | 50972 | 63987
5 | 14:13.13 | 2:59.27 | 63988 | 77439
6 | 17:12.40 | 3:44.38 | 77440 | 94277
7 | 20:57.03 | 5:02.20 | 94278 | 116947
8 | 25:59.23 | 1:53.42 | 116948 | 125464
9 | 27:52.65 | 5:39.22 | 125465 | 150911
10 | 33:32.12 | 1:13.56 | 150912 | 156442
11 | 34:45.68 | 3:49.53 | 156443 | 173670
12 | 38:35.46 | 2:50.49 | 173671 | 186469
13 | 41:26.20 | 5:03.07 | 186470 | 209201
14 | 46:29.27 | 4:11.26 | 209202 | 228052
15 | 50:40.53 | 2:46.47 | 228053 | 240549

Track 1

Filename D:Rips1 – Circle Of Life.wav

Pre-gap length 0:00:02.00

Peak level 96.6 %
Extraction speed 4.4 X
Track quality 100.0 %
Test CRC BFBB74AC
Copy CRC BFBB74AC
Track not present in AccurateRip database
Copy OK

Track 2

Filename D:Rips2 – Sanson Yojo.wav

Peak level 96.6 %
Extraction speed 4.9 X
Track quality 100.0 %
Test CRC A550ED0D
Copy CRC A550ED0D
Track not present in AccurateRip database
Copy OK

Track 3

Filename D:Rips3 – Carina.wav

Peak level 96.6 %
Extraction speed 5.3 X
Track quality 100.0 %
Test CRC 7673FDCB
Copy CRC 7673FDCB
Track not present in AccurateRip database
Copy OK

Track 4

Filename D:Rips4 – Nuage.wav

Peak level 96.6 %
Extraction speed 5.4 X
Track quality 100.0 %
Test CRC 0C06AA27
Copy CRC 0C06AA27
Track not present in AccurateRip database
Copy OK

Track 5

Filename D:Rips5 – K’s Perspective.wav

Peak level 96.6 %
Extraction speed 5.8 X
Track quality 100.0 %
Test CRC 2BC3BF48
Copy CRC 2BC3BF48
Track not present in AccurateRip database
Copy OK

Track 6

Filename D:Rips6 – Driftwood.wav

Peak level 96.6 %
Extraction speed 6.3 X
Track quality 100.0 %
Test CRC 37469DBD
Copy CRC 37469DBD
Track not present in AccurateRip database
Copy OK

Track 7

Filename D:Rips7 – Portrait In The Mirror.wav

Peak level 96.6 %
Extraction speed 6.9 X
Track quality 100.0 %
Test CRC 3F6FCE65
Copy CRC 3F6FCE65
Track not present in AccurateRip database
Copy OK

Track 8

Filename D:Rips8 – Entrée.wav

Peak level 96.6 %
Extraction speed 5.9 X
Track quality 100.0 %
Test CRC 3915D093
Copy CRC 3915D093
Track not present in AccurateRip database
Copy OK

Track 9

Filename D:Rips9 – Yoru Ga MIta Keshiki.wav

Peak level 96.6 %
Extraction speed 5.5 X
Track quality 99.9 %
Test CRC 54F66DDD
Copy CRC 54F66DDD
Track not present in AccurateRip database
Copy OK

Track 10

Filename D:Rips10 – Papyrus.wav

Peak level 96.5 %
Extraction speed 5.7 X
Track quality 100.0 %
Test CRC DA0A8953
Copy CRC DA0A8953
Track not present in AccurateRip database
Copy OK

Track 11

Filename D:Rips11 – Essay.wav

Peak level 96.6 %
Extraction speed 5.2 X
Track quality 99.9 %
Test CRC 715DF5A5
Copy CRC 715DF5A5
Track not present in AccurateRip database
Copy OK

Track 12

Filename D:Rips12 – Cadence.wav

Peak level 96.6 %
Extraction speed 4.6 X
Track quality 99.9 %
Test CRC A07210A3
Copy CRC A07210A3
Track not present in AccurateRip database
Copy OK

Track 13

Filename D:Rips13 – Fountain.wav

Peak level 96.5 %
Extraction speed 6.1 X
Track quality 99.9 %
Test CRC 41E4FB5D
Copy CRC 41E4FB5D
Track not present in AccurateRip database
Copy OK

Track 14

Filename D:Rips14 – Grazia.wav

Peak level 96.5 %
Extraction speed 5.8 X
Track quality 99.9 %
Test CRC 8C931563
Copy CRC 8C931563
Track not present in AccurateRip database
Copy OK

Track 15

Filename D:Rips15 – Vita.wav

Peak level 64.3 %
Extraction speed 4.9 X
Track quality 99.9 %
Test CRC 707CE525
Copy CRC 707CE525
Track not present in AccurateRip database
Copy OK

None of the tracks are present in the AccurateRip database

No errors occurred

End of status report

–– CUETools DB Plugin V2.1.6

[CTDB TOCID: 7FqYiQAB5MZYQah8OK8Xzy74dbs-] disk not present in database
Submit result: 7FqYiQAB5MZYQah8OK8Xzy74dbs- has been uploaded

==== Log checksum 6A128063A3B9FD9A3605B56BBDFC41CC26DC59E28F1EDFF26E24F6E627686998 ====

Thanks to the Original customer.

Marihiko Hara – Landscape In Portrait (2017) {Beat} Download, Warez, DDL, Free, Full Album, Torrent, Legal.

Download