Mariah Carey – Glitter (2001) {Japanese Edition}

Download
Mariah Carey - Glitter (2001) {Japanese Edition}

Mariah Carey – Glitter (2001) {Japanese Edition}
EAC Rip | FLAC (Img) + Cue + Log ~ 422 Mb | MP3 CBR320 ~ 134 Mb
Full Scans (JPG, 600 dpi) ~ 149 Mb | RAR 5% Recovery
R&B, Funk, Soul, Hip Hop, Pop, Soundtrack | Sony Records #SRCS 2500

Glitter is the soundtrack album from the film of the same name, and the eighth studio album by American singer Mariah Carey. It was released on September 11, 2001, by Virgin Records America. The album was a complete musical departure from any of Carey’s previous releases, focusing heavily on recreating a 1980s disco era to accompany the film, set in 1983. By covering or heavily sampling several older tunes and songs, Carey created Glitter as an album that would help viewers connect with the film, as well as incorporating newly written ballads. The singer collaborated with Jimmy Jam and Terry Lewis and DJ Clue, who co-produced the album.

Musically, Glitter was structured to be a retro-influenced album and have more of a dance-oriented element. On several songs, critics noted Carey to be more sexually suggestive lyrically than before, in part due to the inclusion of several guest hip hop musicians. Glitter featured several other musical acts such as Eric BenĂ©t, Ludacris, Busta Rhymes, Fabolous, and Ja Rule. Both the album and its accompanying film were met with generally negative reviews from music critics who felt the album failed in trying to capture a genuine 1980s theme, and there were too many guest appearances. Universally, Glitter was viewed as a commercial and critical failure, leading to Virgin Records cancelling Carey’s $100 million five-album contract and dropping her from the label. While it debuted at number seven on the US Billboard 200, it was Carey’s lowest-first week sales of any album she had ever released. Internationally, it peaked outside the top-ten in many countries, but topped the charts in Japan. Glitter remains one of Carey’s lowest selling albums.

~ Wiki
Mariah Carey - Glitter (2001) {Japanese Edition}

Official Website | Wiki | Discogs | All Music

***************

Mariah Carey - Glitter (2001) {Japanese Edition}

Track List:

01. Loverboy Remix [0:04:30.27]
02. Lead The Way [0:03:53.00]
03. If We [0:04:20.63]
04. Didn’t Mean To Turn You On [0:04:54.00]
05. Don’t Stop (Funkin’ 4 Jamaica) [0:03:37.50]
06. All My Life [0:05:09.64]
07. Reflections (Care Enough) [0:03:20.38]
08. Last Night A DJ Saved My Life [0:06:43.23]
09. Want You [0:04:43.37]
10. Never To Far [0:04:21.45]
11. Twister [0:02:26.35]
12. Loverboy [0:03:51.35]
13. Loverboy (MJ Cole MainRemix Radio Edit) [0:04:13.30]

EAC Log
Exact Audio Copy V1.3 from 2. September 2016

EAC extraction logfile from 13. July 2017, 23:03

Mariah Carey / Glitter

Used drive : PLEXTOR DVDR PX-716A Adapter: 1 ID: 0

Read mode : Secure
Utilize accurate stream : Yes
Defeat audio cache : Yes
Make use of C2 pointers : No

Read offset correction : 30
Overread into Lead-In and Lead-Out : No
Fill up missing offset samples with silence : Yes
Delete leading and trailing silent blocks : No
Null samples used in CRC calculations : Yes
Used interface : Installed external ASPI interface

Used output format : User Defined Encoder
Selected bitrate : 1024 kBit/s
Quality : High
Add ID3 tag : No
Command line compressor : C:Program Files (x86)Exact Audio CopyFlacflac.exe
Additional command line options : -6 -V -T "ARTIST=%artist%" -T "TITLE=%title%" -T "ALBUM=%albumtitle%" -T "DATE=%year%" -T "TRACKNUMBER=%tracknr%" -T "GENRE=%genre%" -T "COMMENT=%comment%" -T "BAND=%albuminterpret%" -T "ALBUMARTIST=%albuminterpret%" -T "COMPOSER=%composer%" %haslyrics%–tag-from-file=LYRICS="%lyricsfile%"%haslyrics% -T "DISCNUMBER=%cdnumber%" -T "TOTALDISCS=%totalcds%" -T "TOTALTRACKS=%numtracks%" %hascover%–picture="%coverfile%"%hascover% %source% -o %dest%

TOC of the extracted CD

Track | Start | Length | Start sector | End sector
––––––––––––––––––––––––––––-
1 | 0:00.00 | 4:30.27 | 0 | 20276
2 | 4:30.27 | 3:53.00 | 20277 | 37751
3 | 8:23.27 | 4:20.63 | 37752 | 57314
4 | 12:44.15 | 4:54.00 | 57315 | 79364
5 | 17:38.15 | 3:37.50 | 79365 | 95689
6 | 21:15.65 | 5:09.64 | 95690 | 118928
7 | 26:25.54 | 3:20.38 | 118929 | 133966
8 | 29:46.17 | 6:43.23 | 133967 | 164214
9 | 36:29.40 | 4:43.37 | 164215 | 185476
10 | 41:13.02 | 4:21.45 | 185477 | 205096
11 | 45:34.47 | 2:26.35 | 205097 | 216081
12 | 48:01.07 | 3:51.35 | 216082 | 233441
13 | 51:52.42 | 4:13.30 | 233442 | 252446

Range status and errors

Selected range

Filename C:mmMariah Carey2001 – Glitter [SRCS 2500]Mariah Carey – Glitter.wav

Peak level 100.0 %
Extraction speed 8.5 X
Range quality 99.9 %
Test CRC C3976C82
Copy CRC C3976C82
Copy OK

No errors occurred

End of status report

–– CUETools DB Plugin V2.1.6

[CTDB TOCID: JAbUhe_g5gqKNwbDLvEcRcH_zoI-] found
Submit result: JAbUhe_g5gqKNwbDLvEcRcH_zoI- has been confirmed
Track | CTDB Status
1 | (53/53) Accurately ripped
2 | (53/53) Accurately ripped
3 | (50/53) Accurately ripped
4 | (49/53) Accurately ripped
5 | (53/53) Accurately ripped
6 | (53/53) Accurately ripped
7 | (51/53) Accurately ripped
8 | (52/53) Accurately ripped
9 | (52/53) Accurately ripped
10 | (51/53) Accurately ripped
11 | (53/53) Accurately ripped
12 | (52/53) Accurately ripped
13 | (52/53) Accurately ripped

DR Log
foobar2000 1.2.6 / Dynamic Range Meter 1.1.1
log date: 2017-07-16 20:39:37

––––––––––––––––––––––––––––––––––––––––
Analyzed: Mariah Carey / Glitter
––––––––––––––––––––––––––––––––––––––––

DR Peak RMS Duration Track
––––––––––––––––––––––––––––––––––––––––
DR6 -0.29 dB -7.58 dB 4:30 01-Loverboy Remix
DR6 -0.01 dB -9.10 dB 3:53 02-Lead The Way
DR7 -0.01 dB -8.50 dB 4:21 03-If We
DR5 -0.01 dB -7.00 dB 4:54 04-Didn’t Mean To Turn You On
DR7 -0.09 dB -8.12 dB 3:38 05-Don’t Stop (Funkin’ 4 Jamaica)
DR6 -0.01 dB -7.72 dB 5:10 06-All My Life
DR7 -0.01 dB -8.66 dB 3:21 07-Reflections (Care Enough)
DR6 -0.01 dB -7.63 dB 6:43 08-Last Night A DJ Saved My Life
DR5 -0.01 dB -7.48 dB 4:43 09-Want You
DR5 -0.12 dB -8.41 dB 4:22 10-Never To Far
DR8 -0.52 dB -10.51 dB 2:26 11-Twister
DR6 -0.29 dB -8.01 dB 3:51 12-Loverboy
DR6 0.00 dB -7.10 dB 4:13 13-Loverboy (MJ Cole MainRemix Radio Edit)
––––––––––––––––––––––––––––––––––––––––

Number of tracks: 13
Official DR value: DR6

Samplerate: 44100 Hz
Channels: 2
Bits per sample: 16
Bitrate: 1003 kbps
Codec: FLAC
================================================================================

CUETools Log
[CUETools log; Date: 16.07.2017 20:39:38; Version: 2.1.5]
[CTDB TOCID: JAbUhe_g5gqKNwbDLvEcRcH_zoI-] found.
Track | CTDB Status
1 | (55/55) Accurately ripped
2 | (55/55) Accurately ripped
3 | (52/55) Accurately ripped
4 | (51/55) Accurately ripped
5 | (55/55) Accurately ripped
6 | (55/55) Accurately ripped
7 | (53/55) Accurately ripped
8 | (54/55) Accurately ripped
9 | (54/55) Accurately ripped
10 | (53/55) Accurately ripped
11 | (55/55) Accurately ripped
12 | (54/55) Accurately ripped
13 | (54/55) Accurately ripped
[AccurateRip ID: 001b7777-0112cbcb-be0d250d] found.
Track [ CRC | V2 ] Status
01 [623d5e23|d7d894fa] (14+19/33) Accurately ripped
02 [a46d4107|987c7bae] (14+20/34) Accurately ripped
03 [8391cb3e|4b28458f] (13+19/32) Accurately ripped
04 [0158bd18|fc22ab78] (13+19/32) Accurately ripped
05 [45ed48b1|a9ccc9e9] (13+20/33) Accurately ripped
06 [c68c1897|918ab7a0] (14+20/34) Accurately ripped
07 [3614a34a|d19e2730] (13+19/32) Accurately ripped
08 [af33c79c|e3cea342] (13+19/32) Accurately ripped
09 [8aff6f6f|d231eb83] (13+20/33) Accurately ripped
10 [8195c60c|f51e8190] (13+20/33) Accurately ripped
11 [979c25c1|1ef1cf91] (13+20/33) Accurately ripped
12 [fca94d23|de79a745] (13+19/32) Accurately ripped
13 [ca6964a9|a0d56be8] (12+19/31) Accurately ripped

Track Peak [ CRC32 ] [W/O NULL] [ LOG ]
– 100,0 [C3976C82] [0C90F447] CRC32
01 96,7 [691DDFD4] [E86BB445]
02 99,8 [D67411B7] [4ABF9FFE]
03 99,8 [79C2FDAE] [F0FF1E73]
04 99,8 [7B96EF8F] [30AA9AC7]
05 98,9 [7E216D2A] [86BC7972]
06 99,8 [8F6F4C23] [ADDDFCB2]
07 99,8 [C218915D] [0B061F38]
08 99,8 [3C9FD019] [751A76D0]
09 99,8 [B448F607] [75A2126D]
10 98,6 [F7260603] [A799FC86]
11 94,1 [03F33AB9] [254958BF]
12 96,6 [7F6902CE] [7ECC1624]
13 100,0 [AFB5C1D4] [983FB98C]

Mariah Carey - Glitter (2001) {Japanese Edition}

All thanks go to sergych

>>> Mariah Carey in my Blog <<<

Download from icerbox.com:

Mariah Carey – Glitter (2001) {Japanese Edition} Download, Warez, DDL, Free, Full Album, Torrent, Legal.

Download